<?xml version="1.0" standalone="no"?>
<!DOCTYPE svg PUBLIC "-//W3C//DTD SVG 1.1//EN" "http://www.w3.org/Graphics/SVG/1.1/DTD/svg11.dtd">
<svg xmlns="http://www.w3.org/2000/svg">
<defs >
<font id="IMFellEnglishSC" horiz-adv-x="886" ><font-face
    font-family="IM FELL English SC"
    units-per-em="2048"
    panose-1="2 0 0 0 0 0 0 0 0 0"
    ascent="1854"
    descent="-744"
    alphabetic="0" />
<glyph unicode=" " glyph-name="space" horiz-adv-x="439" />
<glyph unicode="!" glyph-name="exclam" horiz-adv-x="558" d="M187 97Q187 126 194 154T225 201Q228 201 234 201T247 201T261 202T270 202Q291 202 311 198T347 184T372 156T382 114Q382 60 358 34T277 7H258Q246 7 234 9T216 19Q214 22 210 30T201 47T192 64T187
76V97ZM197 498V519Q197 530 198 557T200 615T203 673T206 711Q213 713 214 718T216 728V737Q216 750 212 764T203 791T193 818T187 846V972Q187 973 186 977T183 986T180 995T178 1000Q177 1005 175 1014T172 1033T169 1049T168 1059V1140V1221Q171 1230 177 1240T191
1260T208 1275T225 1282Q227 1282 233 1280T245 1276T258 1272T267 1270Q268 1270 275 1274T284 1282H292H303Q312 1275 323 1267T346 1248T366 1227T379 1202Q380 1199 380 1191T381 1172T382 1153T382 1140Q382 1134 382 1124T382 1104T381 1087T379 1078Q379
1073 377 1055T371 1016T364 975T360 951Q360 947 361 925T362 882Q362 860 360 856Q360 853 359 846T357 832T355 818T353 808V452Q353 444 352 430T348 400T344 372T341 355Q338 341 326 329T298 317H292Q242 351 220 392T197 498Z" />
<glyph unicode="&quot;" glyph-name="quotedbl" horiz-adv-x="1018" d="M110 753Q110 770 117 785T135 815T157 844T176 875Q177 876 180 883T188 899T196 916T202 926Q212 941 229 956T264 988T295 1022T308 1062Q308 1071 308 1087T311 1112Q313 1129 315 1139T318
1169Q318 1178 311 1187T293 1205T271 1219T250 1230Q249 1230 249 1231V1232Q242 1231 232 1230T211 1226T191 1223T178 1221Q156 1221 134 1233T93 1263T64 1303T53 1346Q53 1367 62 1391T87 1437T124 1472T169 1486Q182 1490 194 1492T219 1495Q233 1495 246
1493T273 1486Q275 1486 279 1483T285 1477Q328 1462 367 1436T436 1374T482 1294T500 1199Q500 1131 488 1075T449 969T384 875T290 789Q275 777 262 766T234 746T203 732T162 727Q156 727 148 727T131 730T116 738T110 753ZM546 753Q546 768 553 783T572 813T597
839T622 862Q661 920 693 970T757 1074Q759 1076 761 1084T766 1095Q766 1135 764 1161T757 1204T741 1228T712 1235Q699 1230 684 1228T654 1225Q617 1225 584 1235Q572 1239 557 1251T530 1280T509 1312T500 1342Q500 1376 513 1405T548 1455T601 1489T667 1502Q684
1502 712 1495T770 1477T825 1451T861 1424Q864 1419 867 1413T871 1405L880 1382Q883 1379 890 1372T905 1355T920 1337T930 1323Q933 1301 944 1280T956 1235Q956 1224 955 1215T951 1195Q946 1180 944 1169T942 1144Q942 1137 943 1132T946 1119Q948 1111 949
1106T951 1095Q951 1076 947 1061T936 1033T921 1006T904 977Q886 948 875 922T840 862Q818 835 788 811T724 768T654 739T583 728H558Q554 731 550 738T546 753Z" />
<glyph unicode="#" glyph-name="numbersign" horiz-adv-x="1644" d="M767 163Q767 179 773 192T786 218T800 244T809 273Q810 289 811 298T815 313T819 323T824 334Q827 338 830 344T837 362Q839 371 840 376T843 387T849 398T864 417Q863 424 863 429T863 439Q863
446 863 453T864 471Q864 475 867 480T871 490H869Q868 490 867 490T863 491Q848 491 815 488T733 477L638 490Q613 490 613 481H549Q549 463 536 455Q531 453 527 447T517 441Q517 433 517 428T518 417Q518 396 515 387T504 374Q504 342 503 320T497 285Q496 281
485 273T470 263Q462 250 461 241T459 218Q459 204 458 201Q455 187 451 182T442 172T435 163T428 145L375 125Q369 125 360 135T342 157T327 179T321 192Q321 208 325 220T334 245T345 269T354 296Q356 300 357 311T363 327Q364 341 371 353T383 384Q383 386 383
392T385 406T387 420T388 429Q390 433 402 444T416 462Q416 466 416 472T411 479Q394 470 379 466T363 462Q358 464 355 464T347 464Q336 464 328 462T311 456T295 451T276 448L210 457Q190 453 184 452T172 450Q159 450 143 452T111 459T86 475T75 502Q75 510
80 522T92 545T108 566T124 580Q173 587 205 589T267 592Q290 592 311 592T356 590Q380 583 388 582T399 580Q444 593 463 615T489 665T501 727T523 796Q526 804 531 807T541 814T549 822T553 837Q552 838 552 840Q551 842 551 844Q544 844 541 844T534 846T525
849T511 853Q505 851 500 850T487 849L449 856Q440 856 431 852T413 843T395 833T375 829L312 844Q292 839 286 837T274 834Q261 834 245 836T214 845T189 861T179 889Q179 897 183 908T194 932T209 953T226 967H254L458 977L497 965Q512 965 527 972T560 984Q565
984 575 981T587 977Q588 978 590 979Q593 982 593 984Q616 1022 633 1070T660 1163V1189Q660 1193 665 1199T672 1211Q681 1219 684 1226T688 1244Q688 1266 696 1285T717 1322T747 1353T783 1379Q797 1379 806 1370T821 1349T829 1324T831 1306Q831 1293 823
1288T814 1275Q818 1267 820 1254T824 1235Q824 1225 821 1219T814 1208T804 1199T795 1189Q794 1186 791 1176T785 1154T779 1129T776 1112Q776 1087 771 1071T757 1041T741 1015T729 984L864 977H939Q956 977 974 977T1010 980T1043 987T1068 1000Q1068 1001
1074 1018T1088 1058T1102 1099T1108 1123V1154Q1110 1160 1115 1165T1127 1175T1138 1186T1143 1199Q1143 1223 1148 1243T1162 1282T1180 1316T1198 1349Q1205 1351 1211 1352T1222 1353Q1236 1353 1245 1350T1255 1344Q1263 1327 1272 1317T1286 1301Q1286 1296
1283 1287T1276 1269T1269 1253T1266 1244Q1267 1232 1267 1224T1267 1211Q1267 1200 1266 1195T1262 1186T1255 1178T1245 1166Q1240 1160 1239 1154T1236 1141T1232 1124T1222 1100L1229 1067Q1229 1059 1228 1049T1223 1029T1215 1011T1203 1000L1271 1005Q1282
1005 1290 998T1312 990Q1323 990 1335 997T1364 1005L1466 1000L1542 1005Q1561 1005 1569 989T1582 957Q1556 925 1524 907T1451 889Q1439 889 1436 889T1433 891Q1413 888 1395 884T1373 877Q1369 875 1362 872T1343 868Q1332 868 1323 877Q1307 875 1302 875T1292
875Q1266 875 1257 875T1245 877Q1224 866 1212 861T1184 856Q1166 861 1158 861T1146 862Q1129 846 1121 830T1108 797T1102 762T1096 723Q1092 713 1083 699T1064 671T1047 646T1039 630Q1041 623 1043 616T1048 607Q1058 610 1074 612T1107 616T1141 618T1170
619L1209 607Q1220 607 1233 613T1262 619L1364 612L1440 619Q1459 619 1468 603T1482 573Q1432 502 1349 502Q1344 502 1338 504T1330 507Q1328 507 1317 502T1302 497Q1294 497 1286 495T1269 490Q1255 484 1245 484Q1236 485 1229 487Q1223 488 1217 489T1209
490Q1204 488 1199 488T1189 488Q1158 488 1151 488T1143 490Q1125 474 1112 472T1084 469L1006 484Q999 479 998 469T997 450L965 374Q963 370 961 362T958 346T957 331T956 320Q956 300 953 288T944 266T930 246T909 218Q904 206 904 202Q904 191 905 186T906
176Q906 172 905 169T904 164Q902 160 895 151T883 140Q882 135 879 126T876 112Q863 104 851 101T823 97Q817 97 808 105T789 125T774 147T767 163ZM741 877Q713 877 697 873T672 858T660 831T655 789Q653 763 643 749T632 734Q632 733 631 728T629 717T628 706T627
701Q619 688 612 682T600 673T591 664T587 647Q584 644 584 619V590L754 600Q760 600 779 599T845 590Q868 590 889 591T927 600Q929 600 935 621T948 669T963 721T973 756Q976 762 978 763T982 765T988 767T994 773Q1011 808 1011 860Q996 877 985 881T959 886L835
862L741 877Z" />
<glyph unicode="$" glyph-name="dollar" horiz-adv-x="1134" d="M568 -107Q568 -70 568 -56T567 -34T565 -14T561 28L395 35Q369 44 340 48T281 57T225 69T176 90T143 129T130 194V220L149 410Q153 418 156 422T170 427Q191 427 201 408Q240 355 268 304T329 195Q334
183 361 170T422 146T493 126T552 114Q549 145 549 178L566 223Q566 231 564 237T558 251T552 265T549 284Q553 332 554 370T556 445Q556 471 555 500T550 559V626Q540 635 533 644T511 661Q508 661 501 662T485 666T469 669T459 671L407 725Q393 735 382 740T360
748T341 757T319 773Q310 781 305 789T297 805T292 821T284 837Q282 845 276 856T265 874Q242 901 228 920T207 958T197 999T194 1057Q194 1099 204 1144T233 1233T280 1314T343 1379Q353 1389 365 1393T391 1400T418 1403T445 1406Q457 1408 467 1413T487 1425T508
1436T531 1443L526 1560Q526 1565 526 1571T529 1584T536 1594T549 1600Q563 1603 573 1604T594 1605Q614 1605 625 1601T647 1592Q647 1587 649 1571T652 1547Q655 1547 657 1537T661 1515V1495L671 1448L668 1432Q677 1431 685 1429T701 1426Q727 1419 748 1410T798
1400Q817 1400 832 1411T862 1435T893 1459T931 1470Q941 1470 947 1465T956 1452T961 1435T962 1419L943 1353L952 1235V1209Q952 1182 950 1164T941 1118Q940 1113 935 1109T927 1104Q927 1102 921 1102Q916 1102 905 1115T880 1148T850 1192T817 1238T787 1279T761
1304Q738 1318 709 1327T651 1341L645 1310L661 1187L652 1142Q657 1127 659 1119T663 1106T665 1099T665 1095Q665 1079 663 1074T652 1057Q659 1049 664 1024T674 969T680 912T682 874L677 837Q695 828 714 820T761 799L877 725Q879 724 882 722T888 717Q892
714 895 711L912 661Q916 654 919 646T927 633Q930 631 937 623T951 606T965 588T971 576Q974 570 978 559T987 535T995 513T998 497V349Q998 348 994 337T985 317Q981 316 979 311Q978 308 978 306Q976 303 973 293T965 271T958 249T952 237Q949 228 942 218T925
199T908 183T895 173Q886 161 885 147T872 126Q839 114 817 100T775 71T736 46T692 28L689 14V28Q685 26 677 26Q674 11 671 -16Q671 -42 677 -64T685 -118Q675 -119 675 -135V-138Q675 -147 674 -158T667 -179T649 -195T614 -202Q597 -202 587 -198T568 -170V-107ZM535
1346Q510 1343 492 1335T459 1314T432 1283T410 1240Q400 1218 394 1206T383 1182T376 1159T374 1124Q374 1079 387 1045T422 984T475 938T540 905Q543 925 549 951Q547 956 542 969T535 991L549 1041Q549 1053 542 1068T535 1102L542 1218L535 1346ZM670 242Q672
237 678 214T690 163H692L734 173Q738 173 751 194T780 242Q798 272 818 311Q818 313 819 322T821 341T823 361T824 375V391Q824 402 823 410T821 427T817 446T810 471L808 476Q800 487 788 496T765 517Q753 534 749 543T739 558T725 569T696 583Q694 583 689 584T678
588Q673 562 667 537T661 491Q661 462 669 431T677 368L671 330Q671 300 671 284T671 259T670 248T670 242Z" />
<glyph unicode="%" glyph-name="percent" horiz-adv-x="1529" d="M246 -183Q249 -166 255 -154T268 -132T284 -111T300 -86L315 -59Q319 -43 326 -34T339 -12L360 35Q360 37 364 40T374 46T385 51T391 56L400 99Q403 111 410 119T425 136T440 151T453 168Q457
172 464 182T477 202T489 222T495 236Q496 239 506 259T529 303T557 346T582 365Q611 398 631 442T668 523L729 609Q748 652 759 677T778 714T790 731T798 737Q809 764 827 797T867 865T911 935T953 1000T987 1056T1007 1095Q1017 1118 1029 1135T1071 1153Q1084
1153 1099 1150Q1112 1148 1124 1140T1151 1117L1141 1065Q1139 1063 1132 1055T1123 1044Q1113 1026 1111 1006T1097 965Q1091 952 1081 948T1056 934Q1052 927 1050 921T1046 896Q1015 846 996 819T965 778T949 763T944 761T945 761T947 749Q943 733 939 724T930
709T921 700T912 692Q909 687 903 679T892 660T882 640T877 623Q872 597 862 581T843 554T825 538T815 528Q815 524 809 518T801 509Q795 489 787 475T769 449T746 426T720 402Q711 393 707 382T697 362Q693 330 691 318T684 298Q665 285 657 269T647 251Q646 248
640 244T627 237T614 230T606 227Q599 220 593 203T581 167T569 130T556 106Q554 103 549 100T539 94T531 87T528 82Q530 75 530 71T530 63Q530 57 528 54Q523 31 509 20T486 5Q477 -15 475 -26T460 -41Q459 -45 459 -54T453 -74Q451 -89 448 -99T439 -118T424
-134T402 -148Q395 -152 392 -158T387 -172T384 -188T379 -204Q371 -215 366 -218T356 -224T347 -232T339 -251L280 -257Q274 -255 268 -244T256 -220T248 -196T246 -183ZM962 99Q945 134 936 156T927 197Q927 240 931 277T955 343L996 409Q1003 418 1019 430T1053
453T1090 472T1119 480Q1129 477 1135 476T1146 475Q1151 475 1154 476T1159 480H1189Q1212 480 1228 475T1264 454L1303 416L1325 405Q1337 397 1342 387T1349 364T1353 341T1364 320Q1370 311 1375 307T1384 300T1391 291T1396 274Q1397 264 1398 241T1399 200Q1399
195 1396 186T1390 166T1383 147T1379 139Q1377 132 1372 121T1360 97T1348 73T1338 58Q1324 52 1316 45T1301 30T1290 17T1274 8Q1258 -2 1239 -4T1201 -14H1171Q1129 -14 1102 -7T1053 15T1011 51T962 99ZM977 240Q977 227 983 206T1000 162T1023 120T1048 91Q1062
81 1082 73T1125 59T1169 50T1206 46Q1214 46 1218 52T1230 61Q1239 65 1244 66T1254 70T1262 76T1271 88Q1277 97 1284 103T1298 114T1310 127T1318 145Q1319 149 1320 159T1322 170Q1326 185 1330 194T1334 221Q1334 241 1331 256T1310 285Q1308 293 1308 296T1307
302Q1307 322 1298 332T1274 358Q1260 378 1249 386T1227 398T1203 405T1175 419H1118Q1117 419 1102 413T1078 400Q1061 391 1043 372T1011 330T987 283T977 240ZM165 679Q148 714 139 736T130 777Q130 820 134 857T158 923L199 989Q206 998 222 1010T256 1033T293
1052T322 1060Q332 1057 338 1056T349 1055Q354 1055 357 1056T362 1060H392Q415 1060 431 1055T467 1034L506 996L528 985Q540 977 545 967T552 944T556 921T567 900Q573 891 578 887T587 880T594 871T599 854Q600 844 601 821T602 780Q602 775 599 766T593 746T586
727T582 719Q580 712 575 701T563 677T551 653T541 638Q527 632 519 625T504 610T493 597T477 588Q461 578 442 576T404 566H374Q332 566 305 573T256 595T214 631T165 679ZM180 820Q180 807 186 786T203 742T226 700T251 671Q265 661 285 653T328 639T372 630T409
626Q417 626 421 632T433 641Q442 645 447 646T457 650T465 656T474 668Q480 677 487 683T501 694T513 707T521 725Q522 729 523 739T525 750Q529 765 533 774T537 801Q537 821 534 836T513 865Q511 873 511 876T510 882Q510 902 501 912T477 938Q463 958 452 966T430
978T406 985T378 999H321Q320 999 305 993T281 980Q264 971 246 952T214 910T190 863T180 820Z" />
<glyph unicode="&amp;" glyph-name="ampersand" horiz-adv-x="1536" d="M87 389Q87 421 95 459T120 524Q137 549 159 574T206 623T257 668T309 704Q318 706 323 708T332 712T342 718T359 727Q372 732 392 736T430 747T462 766T475 799Q475 801 462 814T433 845T401
877T383 898Q377 908 360 929T326 974T295 1018T281 1045L286 1067Q288 1072 289 1090T293 1119Q295 1146 302 1166T322 1203T352 1236T390 1273Q406 1289 428 1297T476 1310T526 1316T573 1317Q651 1317 710 1284T808 1183Q808 1181 811 1177T818 1167T825 1157T829
1150Q829 1095 818 1063T786 1007T740 964T686 912Q686 903 699 880T730 832T765 787T789 763Q794 760 803 757T821 750T839 740T853 727Q867 707 879 681T906 632T941 594T992 578Q1014 578 1026 595T1044 637T1053 686T1061 727Q1065 745 1074 762T1084 799Q1084
817 1067 837T1030 876T992 914T975 945V965Q1007 974 1044 981T1113 988Q1122 988 1136 988T1165 987T1193 985T1215 981Q1217 981 1222 978T1233 970T1244 961T1251 957Q1253 956 1256 956Q1259 955 1265 955Q1276 955 1286 956T1308 960Q1316 965 1327 968T1347
971L1374 965Q1384 958 1395 954T1414 946T1427 934T1433 912Q1433 896 1427 892T1409 879Q1403 877 1391 872T1366 861T1340 850T1322 843Q1318 844 1312 844T1296 844Q1260 844 1236 821T1194 764T1163 695T1137 635Q1128 618 1116 602T1093 567T1074 530T1066
490Q1066 478 1073 466T1091 441T1112 418T1130 398Q1164 355 1198 315T1279 242Q1293 232 1324 223T1386 201T1440 172T1464 130Q1464 82 1432 59T1357 35Q1340 35 1327 35T1302 37T1274 42T1239 50Q1221 61 1210 78T1180 109Q1172 115 1161 118T1140 125T1120
134T1106 147Q1097 159 1089 180T1071 221T1048 255T1014 270Q999 270 976 244T926 184T875 115T828 64Q792 37 761 19T697 -12T629 -34T552 -54L497 -64Q467 -64 445 -59T401 -46T359 -27T309 -5Q295 -1 288 -1T269 3Q255 13 248 16T236 20T226 22T210 31Q205
31 205 36Q196 49 185 65T164 97T145 130T134 159Q134 161 132 171T129 194Q124 207 123 217T120 232L101 265Q98 269 96 279T91 303T88 332T87 360V389ZM352 221Q360 204 367 191T385 167T408 148T442 131Q448 130 452 129T462 128Q471 128 482 119Q500 104 510
96T542 88Q580 88 613 97T680 119Q682 121 689 122T704 125T720 128T731 131L758 159Q759 160 764 163T777 170T791 177T802 183Q819 192 837 201T860 232L938 306Q945 313 947 326T950 349Q932 362 921 377T901 407T883 435T860 460Q845 471 833 487T808 519T783
550T758 573Q727 584 704 602T655 642Q633 661 621 678T597 710T570 737T526 758Q514 758 497 747T460 718T419 679T377 637T341 599T314 573Q301 552 294 527T282 477T273 426T260 377Q260 366 263 353T270 327T278 302T286 285L352 221ZM461 1107Q461 1083 473
1056T504 1007T548 970T596 955Q600 955 607 956T616 965Q616 991 616 1000T615 1014Q613 1025 612 1033T610 1048Q610 1059 612 1063T618 1073Q629 1086 629 1099Q629 1122 626 1147T612 1194T582 1228T532 1242Q513 1242 500 1226T478 1187T465 1142T461 1107Z"
/>
<glyph unicode="&apos;" glyph-name="quotesingle" horiz-adv-x="558" d="M81 756Q83 768 90 779T106 802T124 823T138 843Q163 876 185 912T235 981L266 1014Q270 1018 277 1039T291 1085T303 1132T308 1161Q308 1197 292 1212T252 1232T199 1238T147 1248T106
1279T90 1349V1358L107 1381Q118 1391 118 1402T123 1427Q127 1442 141 1454T175 1476T214 1491T251 1496L275 1491Q307 1480 338 1463T398 1434Q406 1421 419 1411T441 1394Q455 1365 461 1337T467 1278Q467 1267 473 1264T489 1253Q496 1243 498 1229T500 1201V1175Q500
1142 491 1117T472 1062Q472 1060 472 1053T470 1038T469 1023T467 1014Q458 982 441 957T403 909T359 866T315 823L256 765Q242 752 225 745T187 733T147 728T107 727Q100 727 97 728T90 737L83 744L81 756Z" />
<glyph unicode="(" glyph-name="parenleft" horiz-adv-x="532" d="M340 -296Q339 -275 331 -255T311 -216T288 -179T270 -142L244 -62Q234 -40 219 -20T196 19L165 161Q144 196 138 230T132 304V329Q113 359 113 396Q113 395 115 407T119 435T124 464T127 477Q127
496 125 519T120 564Q116 587 115 610T113 661L132 701Q135 745 140 785T151 864T164 942T182 1026Q190 1062 208 1094T244 1164Q246 1166 248 1179T250 1197L270 1233Q279 1248 284 1256T291 1269T295 1276T296 1284Q301 1288 302 1298T308 1323Q310 1328 316
1333T330 1343T343 1353T352 1363Q356 1367 360 1377T369 1400T378 1422T385 1436Q386 1436 396 1437T410 1441Q424 1449 436 1459T460 1477T487 1492T521 1498Q528 1498 536 1497T552 1492T565 1482T570 1465Q570 1443 552 1426T511 1393T464 1365T430 1339Q407
1313 389 1275T354 1195T326 1111T302 1036Q295 1016 288 999T275 964T263 928T255 887V856Q255 851 255 843T253 827T251 812T250 803Q250 801 245 794T234 785Q229 774 228 764T227 737V706Q227 695 225 685T218 668V590L213 552Q220 528 223 505T228 457T233
409T244 360Q246 358 250 348T255 336Q260 298 260 263T270 190L326 0Q330 -11 336 -18T349 -33T361 -50T366 -73L424 -206Q437 -213 445 -225T458 -252T468 -281T480 -306L506 -334Q511 -339 516 -348T526 -369T534 -393T537 -417Q537 -421 535 -436T532 -455Q505
-455 477 -436T424 -391T377 -338T340 -296Z" />
<glyph unicode=")" glyph-name="parenright" horiz-adv-x="526" d="M-31 -424Q-20 -398 -6 -385T14 -362Q14 -360 16 -352T19 -341L49 -310Q49 -294 54 -282T64 -263Q80 -244 90 -232T105 -214T113 -204T116 -201Q129 -168 150 -130T193 -53T230 25T249 95V147L279
202Q295 266 300 332T305 464Q305 485 305 503T304 539T302 574T298 614Q295 632 290 649T279 683T269 717T265 754L279 808Q279 817 275 825T266 841T256 857T249 877Q249 880 248 886T246 898T245 911T244 919V945L222 969V1005Q218 1026 207 1037T191 1066L172
1130Q170 1133 166 1140T158 1156T148 1173T140 1187Q131 1201 128 1215T116 1247Q99 1275 76 1304T31 1365T-4 1429T-19 1496Q-19 1505 0 1505Q22 1505 37 1497T65 1477T87 1449T108 1419Q116 1409 126 1401T146 1385T167 1367T185 1344Q195 1327 200 1304T217
1263L274 1154Q274 1143 276 1136T282 1122T290 1109T298 1093Q318 1042 335 992T369 893Q371 888 373 875T376 856V806Q380 783 390 762T403 713Q410 658 413 599T417 486Q417 465 411 440T405 398L391 246Q390 244 387 236T381 223V189L350 90V48Q343 10 324
-21T291 -87Q288 -98 285 -113T278 -143T270 -171T260 -192L229 -223L222 -247Q220 -256 207 -275T174 -317T130 -366T83 -411T39 -445T4 -458Q-17 -458 -24 -452T-31 -424Z" />
<glyph unicode="*" glyph-name="asterisk" horiz-adv-x="1010" d="M344 751Q344 771 349 790T359 828T370 866T375 905H367Q365 905 354 896T327 875T296 850T270 827Q267 827 260 819T251 808Q246 806 236 801T214 789T194 778T181 770H171Q162 770 155 775T143
789T136 808T133 827Q133 850 139 860T156 876T181 883T209 894Q211 895 215 899T225 909T234 918T239 924Q242 927 253 935T278 953T303 971T318 981Q318 983 321 990T325 1002V1007V1010Q325 1013 323 1016T318 1021Q300 1018 287 1016T262 1013T238 1011T209
1010Q197 1010 173 1013T125 1024T84 1043T66 1071Q66 1084 83 1096T123 1117T168 1132T200 1138Q235 1138 270 1132T341 1126H386Q377 1147 362 1162T329 1191T292 1217T258 1244Q253 1248 242 1258T219 1281T197 1303T181 1318Q175 1327 173 1335T171 1353V1372V1406Q178
1422 188 1424T209 1427Q229 1427 247 1418T277 1398L462 1213Q468 1214 470 1221T472 1235V1247Q472 1268 467 1286T462 1327Q462 1359 463 1390T472 1455Q473 1463 480 1473T498 1493T519 1508T540 1514Q543 1511 547 1509Q553 1504 559 1503Q571 1496 581 1491T600
1479T612 1463T617 1439Q617 1413 610 1388T593 1337T573 1285T559 1232V1195Q557 1186 552 1181T542 1170T533 1160T529 1145Q529 1140 531 1128T543 1116H548Q550 1120 553 1132T559 1145Q568 1162 585 1187T625 1241T674 1297T726 1347T777 1384T822 1398Q832
1398 843 1396T864 1388T880 1375T886 1353V1349Q874 1314 858 1283T818 1225Q816 1221 809 1214T799 1202Q793 1198 772 1182T726 1146T680 1111T654 1090Q645 1081 645 1080Q645 1078 646 1075T647 1066Q669 1066 686 1063T726 1059Q746 1059 759 1065T792 1071Q813
1071 839 1070T889 1062T928 1039T944 995Q944 954 915 934T847 913Q827 913 809 921T770 934Q738 941 718 943T668 946Q664 946 654 944Q650 943 645 943L635 924L742 818Q755 804 763 780T771 737Q771 723 767 708T756 681T736 662T707 654Q680 654 657 672T613
717T576 775T546 833T522 878T505 896Q503 896 502 895T498 894Q496 893 494 891Q491 888 491 886V732Q490 717 487 697T477 659T457 629T424 616Q394 616 379 626T357 654T349 694T344 740V751Z" />
<glyph unicode="+" glyph-name="plus" horiz-adv-x="1153" d="M121 699Q132 710 154 715T204 721Q224 721 231 720T243 716H394Q428 716 452 719T486 732Q503 749 503 803L484 1038Q484 1064 488 1086T503 1119Q519 1133 553 1133Q576 1133 597 1127T629 1109L657
1048Q658 1048 659 1046T661 1037T664 1016T669 976Q661 973 653 965Q645 954 642 944T638 920Q638 897 641 870T650 822Q652 808 652 804T653 796Q653 780 652 764T650 737Q650 735 651 735Q651 734 652 734Q658 727 660 727Q694 727 731 735T800 744Q816 744
828 741T851 734H1005Q1009 734 1017 731T1027 727Q1036 716 1036 697V621L1018 602Q985 569 929 569Q884 569 838 579T754 592L731 583L669 578Q664 569 660 552T653 512T649 466T647 419Q647 396 649 378T655 344Q658 335 659 327T660 315Q660 311 658 298T655
282L659 234Q659 222 657 215T650 204Q636 194 605 194Q579 194 556 200T525 211Q512 235 507 264T500 324T496 388T486 452L506 529Q506 534 505 539T499 550Q489 559 479 564T454 569Q437 569 421 565T384 561Q370 561 364 561T354 562Q350 569 330 569L306 567Q290
563 274 562T240 561Q223 561 207 562T174 567Q158 567 148 570T126 588Q119 600 117 614T114 649Q116 680 118 688T121 699Z" />
<glyph unicode="," glyph-name="comma" horiz-adv-x="541" d="M94 -472Q94 -456 110 -428T146 -370T187 -315T217 -277L238 -265Q250 -252 258 -236T273 -204T289 -173T309 -144Q314 -136 315 -130T316 -118V-93Q316 -55 299 -36T256 -9T200 4T144 15T101 40T84
92Q84 111 92 138T115 191T151 235T198 254Q206 254 220 253T248 251Q264 250 281 249Q287 249 297 244T317 231T336 217T348 209Q371 194 383 188T402 175T414 161T428 133L437 121Q451 95 467 74T483 26V0Q483 -13 480 -26Q478 -42 477 -55T475 -85V-111Q459
-137 455 -164T444 -218Q438 -242 423 -260T391 -295T359 -329T338 -367L217 -490Q212 -495 200 -497T181 -500H156Q146 -500 135 -500T115 -497T100 -489T94 -472Z" />
<glyph unicode="-" glyph-name="hyphen" horiz-adv-x="951" d="M625 372L613 374L534 360Q511 360 491 367T447 374Q428 374 412 368Q393 360 371 360Q332 360 294 368T217 377Q179 398 164 417T148 462Q148 487 156 509T179 548T215 575T264 585L317 580H342Q348
580 354 580T369 581Q381 583 394 584T419 585H452Q464 585 475 585T497 580Q506 578 515 577T532 576H601Q610 576 618 577T636 580Q649 586 657 588T675 590Q693 590 714 588T755 578T787 559T800 526Q800 496 793 466T770 411T729 371T667 355H663Q661 355 656
358T644 364T633 369T625 372Z" />
<glyph unicode="." glyph-name="period" horiz-adv-x="441" d="M99 142Q99 202 125 233T214 265Q235 265 251 258T284 244Q306 233 317 223T334 201T341 172T342 133V74Q340 66 331 54T309 29T283 9T261 0Q226 7 197 16T146 40T112 79T99 142Z" />
<glyph unicode="/" glyph-name="slash" horiz-adv-x="696" d="M23 7Q26 24 32 36T45 58T61 79T77 104L92 131Q96 147 103 156T116 178L137 225Q137 227 141 230T151 236T162 241T168 246L177 289Q180 301 187 309T202 326T217 341T230 358Q234 362 241 372T254
392T266 412T272 426Q273 429 283 449T306 493T334 536T359 555Q388 588 408 632T445 713L506 799Q525 842 536 867T555 904T567 921T575 927L596 962Q601 977 607 986T620 1004T634 1020T651 1043Q682 1086 705 1132T753 1223Q762 1241 774 1256T801 1291Q804
1295 811 1308T828 1338T845 1371T858 1400Q868 1423 880 1440T922 1458Q935 1458 950 1455Q963 1453 979 1445T1002 1422L992 1370Q990 1368 983 1360T974 1349Q964 1331 962 1311T948 1270Q942 1257 932 1253T907 1239Q903 1232 901 1226T897 1201Q892 1189 882
1177T859 1154T836 1132T815 1112Q794 1091 794 1081V1080L784 1050Q773 1024 758 1002T727 967Q725 958 725 951T724 939Q720 923 716 914T707 899T698 890T689 882Q686 877 680 869T669 850T659 830T654 813Q649 787 639 771T620 744T602 728T592 718Q592 714
586 708T578 699Q572 679 564 665T546 639T523 616T497 592Q488 583 484 572T474 552Q470 520 468 508T461 488Q442 475 434 459T424 441Q423 438 417 434T404 427T391 420T383 417Q376 410 370 393T358 357T346 320T333 296Q331 293 326 290T316 284T308 277T305
272Q307 265 307 261T307 253Q307 247 305 244Q300 221 286 210T263 195Q254 175 252 164T237 149Q236 145 236 136T230 116Q228 101 225 91T216 72T201 56T179 42Q172 38 169 32T164 18T161 2T156 -14Q148 -25 143 -28T133 -34T124 -42T116 -61L57 -67Q51 -65
45 -54T33 -30T25 -6T23 7Z" />
<glyph unicode="0" glyph-name="zero" horiz-adv-x="1004" d="M168 180Q139 239 125 276T110 344Q110 416 117 476T156 586L225 697Q236 711 262 731T320 770T381 802T430 815Q447 810 457 808T475 806Q484 806 488 809T497 815H547Q584 815 612 807T672 772L736
709L774 690Q794 677 801 659T813 622T821 583T838 548Q849 533 857 527T871 514T883 499T892 471Q892 463 893 449T895 417T896 382T897 349Q897 341 893 325T882 291T871 261T864 246Q861 235 852 215T832 175T811 136T795 111Q771 100 758 88T734 65T715 43T689
28Q675 20 660 16T629 8T597 1T566 -9H516Q447 -9 401 4T319 41T248 101T168 180ZM193 415Q193 393 204 357T232 284T270 214T312 166Q335 150 369 137T441 113T513 98T575 92Q582 92 586 95T595 102T603 110T615 116Q629 122 638 125T655 132T668 142T684 161Q693
176 705 186T728 205T748 226T762 256Q763 259 764 266T765 279T767 291T769 298Q772 311 775 320T782 339T787 358T789 384Q789 416 783 442T748 490Q744 503 744 509T743 519Q743 535 739 546T728 568T710 588T689 612Q666 645 647 659T610 679T571 691T523 714H428Q427
714 420 711T402 703T380 693T362 682Q333 667 304 635T249 565T209 486T193 415Z" />
<glyph unicode="1" glyph-name="one" horiz-adv-x="753" d="M102 36Q102 56 113 68T141 86T180 95T222 101T258 109T282 126Q285 133 289 145T298 169T305 194T308 213L282 344Q282 351 285 365T292 396T299 425T303 441L282 625Q282 635 285 643T294 663Q272
686 250 701T204 727Q189 732 169 735T131 745T101 762T88 794Q88 806 95 813T113 823T135 828T154 829L260 822Q273 822 280 823T303 829Q325 826 345 824T386 822Q403 822 421 823T460 829Q468 836 485 841T521 849T560 853T592 855Q600 855 612 854T635 850T655
839T663 820Q663 795 647 780T607 756T560 742T519 732Q512 729 506 721T494 703T483 683T474 664L460 476L478 334L460 308Q460 306 463 297T469 285V284Q469 272 465 260T460 234Q460 210 469 193T483 152Q486 152 494 151T512 148T532 145T547 142Q554 138 573
128T612 105T647 78T663 52V50Q661 39 654 29T635 9L493 3Q492 5 486 7T478 9Q473 10 466 10T450 10H405Q357 10 307 9T211 0L192 -10Q161 -10 138 4T102 36Z" />
<glyph unicode="2" glyph-name="two" horiz-adv-x="958" d="M91 12Q92 17 98 32T110 59Q114 65 125 72T150 86T177 99T196 111Q213 124 231 134T269 156T306 179T341 206Q372 233 406 272T468 355T514 447T532 538Q532 559 522 579T496 614T458 640T412 650L374
637H336Q327 637 317 636T298 623Q283 612 271 594T247 558T219 529T182 516Q171 516 160 517T142 528V557Q142 584 146 597T159 618T178 633T201 659L215 676Q238 706 263 733T329 772L405 782L454 792Q478 792 510 788T576 775T640 751T689 714Q696 705 701 694T710
682L741 631V516Q741 497 728 482T703 452Q702 451 701 448T697 437T689 415T675 379Q674 377 673 376Q671 374 670 374Q659 367 654 359T646 343T638 326T625 310Q614 301 604 297T584 290T563 285T542 277Q541 277 535 272T521 259T506 246T497 239Q496 239 488
234T471 222T454 209T445 202Q440 198 431 189T414 170T399 150T393 135Q393 130 399 130H431Q457 130 479 128T521 116H572Q625 116 679 124T781 154Q790 159 791 166T796 180Q810 197 831 210T873 234L888 183Q888 166 881 149T862 111Q859 104 856 86T847 49T831
15T805 0L788 -2Q749 -7 712 -13T636 -19Q624 -19 613 -15T590 -6T568 3T546 7Q525 7 500 4T457 -3Q453 -3 445 -8T431 -19L340 7Q328 7 317 0T291 -9Q272 -11 256 -12T222 -15T186 -18T144 -19Q127 -19 109 -14T91 9V12Z" />
<glyph unicode="3" glyph-name="three" horiz-adv-x="761" d="M47 -337Q47 -318 49 -307T57 -289T74 -279T105 -270Q115 -266 131 -260T156 -253Q171 -253 185 -260T212 -277T241 -293T273 -301Q297 -301 319 -293T361 -270T397 -236T424 -197Q426 -193 427 -181T429
-164Q433 -160 438 -158T449 -152T458 -145T462 -131V-31Q462 -25 458 -16T448 2T437 17T429 26Q413 48 396 64T359 95T319 123T277 152Q276 154 273 158T265 168T256 176T249 180Q238 180 226 176T202 166T178 157T156 152Q144 152 133 166T121 192Q121 213 138
227T177 252T223 270T259 282Q260 283 264 287T273 297T283 307T291 313Q301 322 312 329T334 342T355 357T372 377L384 394Q411 438 434 484T457 580Q457 582 451 589T436 605T418 624T403 644Q394 659 376 663T341 668Q304 656 279 649T221 642L175 644Q159 645
154 659T149 685Q149 708 154 713L180 727Q201 738 213 754T244 785Q262 797 283 806T328 821T374 831T420 834Q441 834 457 826T495 806Q530 793 552 781T587 751T609 711T626 654Q628 643 632 633T637 611Q637 589 630 562T610 506T583 453T552 410Q545 400 536
395T518 387T500 379T483 367Q467 351 463 336T446 308Q426 301 426 280Q426 276 426 276T427 273Q433 260 451 244T491 211T533 179T562 152Q565 123 574 104T593 66T610 28T618 -26Q618 -37 616 -58T611 -102T603 -145T593 -173L567 -206Q561 -213 557 -223T548
-243T539 -263T526 -280Q500 -308 454 -341T355 -402T249 -448T157 -467Q140 -467 129 -454T105 -427Q91 -419 81 -411T63 -393T51 -370T47 -337Z" />
<glyph unicode="4" glyph-name="four" horiz-adv-x="999" d="M438 -310L457 -256L450 -194Q450 -173 454 -156T464 -118Q469 -97 472 -77T476 -36Q476 -27 466 -17T450 -2L336 3Q322 3 303 2T263 -3Q240 -8 221 -11T182 -14L144 -5Q142 -5 137 -7T120 -14Q111
-14 107 -11T98 -5T88 2T70 5Q56 5 51 3Q44 19 42 30T40 57Q40 78 42 89T51 114Q96 177 136 240T215 370L237 408Q242 415 248 417T260 422T272 428T284 439Q286 444 287 453T289 467Q291 469 297 474T309 486T321 499T327 509L341 545L360 562Q362 566 368 577T381
601T396 625T407 642Q407 644 408 652T412 661L466 716Q466 721 467 724T471 732Q471 733 472 737T475 747T479 757T481 763L513 796Q526 812 534 825T551 847T573 860T609 865Q626 865 636 841T651 786T658 725T660 682L658 635Q645 619 643 607T641 578Q641 561
646 552T651 528L642 457V439L651 408L637 228Q637 214 640 200T663 183Q680 181 696 181T730 180Q747 180 765 180T801 183Q817 197 832 199T869 201Q879 201 898 195T937 178T972 154T987 126Q987 101 982 77T964 35T931 5T883 -7Q872 -7 862 -5T842 1T818 6T789
9Q778 7 766 6T741 5Q722 5 704 3T670 -6T646 -28T637 -66Q635 -70 635 -77T635 -92V-173Q635 -182 635 -189T637 -202Q630 -215 630 -232Q630 -245 636 -250T647 -272Q653 -308 653 -341Q653 -378 647 -408Q647 -417 638 -429T616 -452T591 -471T573 -479Q564
-479 555 -470T535 -458Q502 -451 488 -444T468 -424T460 -395T450 -348L438 -310ZM231 190Q231 178 240 171T262 161T290 158T320 157Q332 157 362 160T425 169T482 185T507 209Q507 221 506 241T502 280T499 315T497 332L488 349Q487 357 487 367T487 391Q487
409 484 428T474 463T455 489T424 500Q407 500 390 486T358 451T331 409T310 375L244 242Q235 224 233 215T231 190Z" />
<glyph unicode="5" glyph-name="five" horiz-adv-x="744" d="M97 -375Q97 -349 113 -321T156 -282Q198 -244 233 -207T290 -130Q298 -116 298 -93Q298 -84 300 -76T303 -61L322 -10Q322 -1 323 2T324 10Q324 15 326 18T332 26T338 36T341 55L336 97L347 151Q347
158 338 174T316 208T290 243T267 272Q265 273 264 275T260 280L258 284Q253 291 238 302T207 326T178 350T162 370L156 401Q148 415 142 425T132 445T126 466T123 495Q123 508 123 518T126 538T131 559T141 586Q139 591 138 598T136 609Q136 632 141 648T153 679T170
706T189 735V761L220 794Q236 814 247 827T272 849T303 860T348 863Q370 863 393 859T441 850T488 840T533 836Q558 836 579 848T619 876T651 904T677 917Q681 917 683 913T686 903T687 891T687 881V879Q681 853 676 832Q671 814 667 799T660 782Q660 777 656 771T649
761L630 742Q625 732 623 718T616 691T603 669T578 659Q540 659 507 665T441 680T377 695T310 702H264Q248 697 240 678T231 642Q231 635 254 609T307 552L343 516Q360 496 376 475T400 439Q409 417 426 398T459 356L475 317Q494 301 497 296T501 285Q501 268 503
254T516 235V192L508 95L516 69Q516 61 515 49T512 24T508 -1T502 -22L480 -47Q475 -55 473 -66T470 -90T466 -115T459 -138Q449 -155 430 -184T386 -246T333 -313T276 -375T221 -420T172 -438Q161 -438 148 -434T123 -421T105 -401T97 -375Z" />
<glyph unicode="6" glyph-name="six" horiz-adv-x="862" d="M100 337Q100 376 110 416T126 493Q131 498 133 510Q143 528 150 548T164 590T180 633T204 676Q216 697 229 712T254 739Q270 752 281 764T302 790T321 819T344 851L391 893L403 920Q404 921 414 928T438
943T468 961T497 977Q508 982 512 985T519 990Q521 990 526 991T537 995T548 999T557 1003Q567 1013 574 1022T587 1038T601 1053T621 1069Q642 1078 667 1088T713 1111Q725 1121 733 1130T750 1145T769 1155T796 1159Q808 1159 825 1158T857 1153T882 1138T893
1111Q893 1097 889 1089T877 1076T859 1066T839 1057Q828 1044 820 1028T796 1003Q792 1002 781 998T761 986L732 972Q715 961 706 948T680 920Q668 909 651 897T617 872T590 842T578 806Q565 797 550 792T520 780T491 765T466 739Q466 737 464 726T460 713L450
701Q450 698 466 694T505 684T548 673T578 663Q599 651 616 641T647 618T676 592T706 559Q712 554 721 532T739 485T754 438T760 410Q758 384 756 373T753 360Q754 348 755 340T756 325Q756 312 755 306T753 296Q753 275 749 257T732 218Q711 186 697 159T663 102Q661
100 658 99T654 95Q652 95 642 94T626 90Q624 88 619 83T608 72T597 61T590 52Q585 52 575 52T554 50T532 48T519 43Q508 41 501 36T486 25T470 15T450 10Q428 10 411 13T377 23T344 36T308 52Q306 52 298 54T281 58T263 62T254 64Q242 66 229 76T202 100T178 127T159
147Q157 148 153 163T143 196T133 232T126 254Q126 258 124 267T118 285T112 303T106 313Q104 324 102 326T100 337ZM216 336L222 311Q224 306 228 293T238 260T254 219T275 175Q286 152 306 133T350 102Q351 100 354 100T362 100H426Q437 102 448 106T466 116Q468
118 477 126T496 144T514 163T524 175Q547 194 561 215T582 259T592 310T595 370Q595 387 592 399T584 424T573 448T562 477V510Q552 535 538 544T504 562Q496 565 485 573T460 592T434 611T407 623Q399 623 384 621T353 616T324 606T308 590L242 462L244 446Q244
436 244 424T243 400T241 379T237 367Q237 365 234 360T227 350T220 341T216 336Z" />
<glyph unicode="7" glyph-name="seven" horiz-adv-x="948" d="M488 -467L481 -458L488 -426Q483 -415 483 -396Q483 -386 488 -375L481 -344Q494 -321 505 -297T523 -247L540 -190Q545 -167 558 -145T576 -100Q580 -66 590 -40T609 21Q613 32 614 38T616 52Q616
57 614 61T612 74L616 97L618 103Q620 110 621 111Q624 113 629 118T639 130T649 141T654 149L663 180Q673 211 683 246T713 308V334Q713 359 717 382T726 428T736 476T744 531Q744 556 734 572T709 596T673 608T633 611H559Q517 615 478 619T394 623H377L365 631H204Q191
631 182 610T161 562T131 515T83 493Q78 493 78 502L80 526Q80 545 83 560T89 589T96 613T100 637Q103 651 104 681T110 741T129 795T168 818Q180 816 185 813T192 806T196 796T204 785Q205 784 222 780T261 771T301 763T325 759Q330 759 334 760T344 763Q349 765
353 765T365 765Q386 765 406 761T448 754Q485 753 519 749T587 744Q606 744 628 751Q646 754 666 754Q677 754 682 752T701 739H810Q813 739 818 736T829 727T839 717T843 709Q843 691 840 675T832 643T824 612T820 583L829 516Q824 493 820 465T809 408T793 353T765
308V225Q753 211 746 194T725 161Q721 154 715 145T708 131L720 97Q719 95 716 90T708 78T699 67T692 59Q684 46 683 32T681 4T674 -22T654 -42V-59Q654 -74 652 -93T647 -130T641 -166T635 -197Q635 -204 630 -209Q619 -229 615 -247T609 -285T607 -324T604 -365Q600
-383 588 -397T571 -427L566 -445Q558 -465 549 -473T507 -481Q492 -481 488 -467Z" />
<glyph unicode="8" glyph-name="eight" horiz-adv-x="804" d="M481 644Q495 623 509 608T539 580T569 553T602 521L621 490L645 469Q653 457 661 431T677 374T688 317T693 277Q693 261 692 240T688 197T678 156T659 123Q630 90 602 66T543 25T476 0T392 -9Q322
-9 260 18T152 102Q143 132 129 162T114 225Q114 247 121 269T138 313T160 354T183 393Q192 411 196 428T216 462Q226 474 240 487T268 514T290 544T299 580Q299 595 288 612T261 645T227 675T193 701Q188 705 176 732T149 792T125 853T114 891Q114 955 128 1013T174
1115T255 1185T375 1211Q423 1211 467 1203T557 1175Q578 1162 597 1138T632 1084T659 1023T673 965Q673 938 661 901T630 828T590 759T550 708Q546 702 535 695T511 679T490 662T481 644ZM299 128Q320 105 350 87T415 69Q439 69 460 81T497 113T522 155T531 201Q531
215 525 227T519 256Q519 258 520 263T526 279Q530 285 533 293T538 306Q538 325 523 356T485 417T437 468T392 490Q352 490 330 468T295 414T278 346T268 282Q266 278 265 267T263 251Q263 247 268 235T275 218Q276 213 280 201T288 175T295 147T299 128ZM268
958Q268 933 278 893T306 815T350 749T406 721Q411 721 422 722T444 728Q444 730 444 736T446 749T448 762T449 770Q449 772 452 776T459 786T467 796T474 803Q475 807 482 821T491 844Q493 848 498 858T509 878T519 897T524 907Q524 924 518 942T507 977Q503 998
500 1017T492 1055T479 1089T455 1119Q448 1123 439 1130T421 1143T405 1153T396 1159H373Q335 1159 314 1139T282 1089T270 1023T268 958Z" />
<glyph unicode="9" glyph-name="nine" horiz-adv-x="892" d="M-25 -223L-11 -204Q-11 -201 -10 -195T-8 -181T-7 -167T-6 -159Q-2 -148 3 -143T13 -135T24 -128T37 -116Q42 -110 43 -104T46 -93T49 -82T58 -73Q85 -64 104 -46T150 -12L271 43Q283 59 308 78T360
119T406 161T426 204Q426 206 403 212T351 228T294 247T257 266Q212 301 182 332T132 398T105 476T96 581Q96 616 109 651T144 717T193 776T247 823Q258 832 269 837T291 848T313 859T335 875Q358 880 381 882T430 884Q451 884 472 882T516 875Q521 874 525 870T534
862L593 851Q612 845 632 834T670 807T702 774T724 734Q724 729 725 716T729 701L753 676Q764 661 772 639T784 593T791 547T793 510Q793 504 790 488T783 454T776 422T772 405L760 393V360Q760 359 756 356T748 348T739 340T734 336V308Q734 303 730 298T720 288T709
279T702 272Q702 270 700 258T696 244Q688 233 678 225T655 210T632 194T612 175Q571 118 523 73T426 -19Q425 -21 417 -30T404 -42Q402 -42 394 -45T380 -52Q357 -61 333 -76T288 -109L266 -131L224 -140L202 -164Q187 -175 167 -188T124 -214T79 -234T37 -242L-20
-232L-25 -223ZM278 448V429Q280 426 286 416T299 394T313 373T324 360Q338 335 355 325T394 306L432 287Q439 285 443 279T449 264T454 249T463 239Q484 248 499 259T528 285T553 317T579 355Q581 374 586 393T597 431T607 469T612 509Q612 522 612 527T610 538Q608
545 607 551T606 569L612 609Q592 653 580 688T551 747T506 785T426 798H394Q393 786 385 775T366 752T343 731T324 713Q313 700 305 684T289 649T277 613T266 580Q266 554 269 532T276 486Q278 482 278 476T278 465V448Z" />
<glyph unicode=":" glyph-name="colon" horiz-adv-x="534" d="M109 116Q109 139 113 154T124 181T144 201T173 221Q193 235 205 250T233 265Q238 265 249 263T271 259T293 254T306 249Q310 247 319 241T333 234H370Q378 231 384 219T395 190T401 159T403 135Q403
115 396 90T384 43Q378 35 365 28T337 16T305 8T278 5H249Q235 5 218 7T188 21Q186 23 181 28T170 38T159 50T152 59Q147 63 140 70T126 84T114 100T109 116ZM141 640L140 650Q140 673 147 702T168 758T204 803T252 822Q267 822 286 817T326 803T363 784T391 763Q394
758 397 748T403 726T408 701T410 682Q410 659 403 643T382 616T351 597T311 583Q311 582 310 582Q308 581 308 581Q303 579 293 576T273 570T252 565T238 562Q226 562 210 570T178 591T152 616T141 640Z" />
<glyph unicode=";" glyph-name="semicolon" horiz-adv-x="566" d="M66 -462Q66 -440 85 -415T131 -366T184 -317T228 -273Q233 -265 236 -255T242 -235T250 -217T266 -204Q274 -187 283 -169T301 -131T316 -87T322 -36Q317 -26 312 -23T300 -18T287 -14T277 -3Q275
-1 272 6T263 22T252 36T237 43Q228 43 221 40T207 32T193 25T176 21Q133 21 106 42T78 109V123L92 142Q103 167 116 191T147 235T188 265T242 277Q303 277 350 249T430 175T478 74T495 -36Q495 -68 489 -90T472 -140L445 -237Q435 -262 420 -283T388 -323T352
-362T317 -403Q315 -403 313 -411T310 -422Q306 -432 290 -440T252 -455T210 -471T176 -491Q166 -493 157 -494T137 -495Q126 -495 117 -494T99 -491Q87 -487 77 -481T66 -462ZM176 728V763Q178 773 193 784T226 806T261 822T285 829Q324 829 347 822T384 799T405
759T420 699Q420 666 404 640T364 595T313 567T263 557Q238 557 222 577T195 625T181 682T176 728Z" />
<glyph unicode="&lt;" glyph-name="less" horiz-adv-x="1116" d="M508 362L484 391Q461 405 447 414T425 428T413 434T409 436Q398 436 389 445T372 466T359 490T350 507Q339 512 332 515T317 522T304 533T288 552L224 618Q208 622 187 632T148 658T116 691T103
730Q103 753 118 770T156 800T201 825T238 848Q244 850 250 857T261 873T273 889T285 896Q297 909 306 916T322 928T337 938T354 953Q358 958 360 964T363 974Q363 984 378 996L442 1017L508 1083Q524 1083 533 1086Q538 1088 542 1090Q549 1094 551 1101T565 1112Q585
1128 598 1137T618 1151Q626 1156 629 1159Q643 1161 657 1175T683 1207T708 1240T731 1259Q748 1265 756 1272T769 1286T779 1301T797 1317Q812 1327 828 1334T861 1349T894 1363T925 1382Q936 1373 948 1356T961 1318Q961 1294 952 1281T929 1258T899 1238T868
1209Q858 1209 841 1199T806 1174T771 1147T748 1128Q745 1126 738 1120T722 1107T706 1093T696 1083L629 1038Q622 1031 613 1020T594 998T572 980T548 972Q542 972 541 974Q540 971 538 966T534 954T528 943T522 936Q519 934 515 932Q509 929 506 929Q495 926
488 921T474 910T463 898T449 887Q424 867 407 856T373 836T340 815T299 784Q299 767 310 752T333 737Q376 710 410 682T482 625Q484 623 492 619T504 612Q507 612 519 604T547 585T575 565T593 554Q603 534 609 529T621 524T634 522T655 507Q659 500 672 485T700
454T731 427T755 415Q778 398 802 382T847 348Q857 340 864 333T877 320T890 308T909 296Q923 287 942 277T980 253T1010 222T1023 183Q1023 169 1015 150T993 114T960 84T920 71Q903 71 887 85T854 111Q845 117 829 119T797 130L748 192L724 202Q713 209 704 221T685
247T661 274T629 296Q619 300 605 311T578 334T555 355T542 365L508 362Z" />
<glyph unicode="=" glyph-name="equal" horiz-adv-x="931" d="M137 310Q132 312 132 329V349Q132 363 132 383T137 422T152 457T180 476H229Q239 476 248 479T266 485T284 490T305 493L362 481Q378 481 385 483T403 486Q420 486 438 483T474 476Q488 469 502 467T530
464Q557 464 584 472T639 481L678 476Q686 476 692 478T705 484T717 490T732 493Q755 493 776 484T812 453V427Q812 412 811 400T808 375T805 350T803 317Q796 302 785 293T761 279T735 272T710 270L606 277Q537 277 468 276T329 272Q300 270 270 262T208 254Q197
254 186 259T164 271T147 289T137 310ZM120 663V704Q120 718 120 738T125 777T140 809T168 825H215Q225 826 234 829T253 837T272 844T294 848Q310 848 321 839T352 830L391 837Q408 837 424 834T457 827Q474 823 488 821T516 818L627 830L666 825Q674 825 680
828T693 836T705 844T720 848Q742 848 763 836T798 803V784L791 680V654Q775 634 749 627T696 619L592 630Q522 630 454 628T317 621Q288 619 256 614T194 609Q186 609 175 613T152 625T132 642T120 663Z" />
<glyph unicode="&gt;" glyph-name="greater" horiz-adv-x="1114" d="M608 370H574Q571 370 561 361T537 339T506 316T477 301Q463 292 452 279T431 253T412 227T390 208L368 201L318 135Q304 128 287 127T259 116Q243 104 228 92T195 80Q173 80 154 92T122 121T101
157T93 190Q93 212 105 228T135 258T172 281T207 301Q219 307 226 313T239 326T251 340T269 356Q290 372 314 388T359 420Q369 420 384 431T415 458T442 489T459 512Q473 525 481 527T495 530T507 535T523 559Q525 563 539 572T569 592T598 610T612 618Q617 619
624 625T632 633Q670 661 705 689T783 744Q794 744 806 758T818 789Q794 809 777 821T744 843T709 864T665 893Q650 904 641 917T610 938Q609 938 607 938T601 939L593 941Q585 950 581 963T565 977Q553 977 542 985T520 1005T502 1027T487 1043L420 1093Q417 1093
410 1098T394 1111T379 1124T368 1133Q360 1137 344 1150T310 1178T275 1203T245 1214Q232 1233 216 1243T186 1262T163 1285T153 1323Q153 1344 166 1361T193 1387Q206 1376 222 1369T254 1354T287 1340T318 1322Q329 1315 335 1307T347 1292T361 1278T385 1265Q394
1262 406 1247T431 1213T459 1181T487 1164L491 1162Q496 1159 496 1159Q520 1141 533 1130T554 1111T565 1101T574 1095Q579 1094 584 1094Q589 1093 594 1093T608 1093Q614 1088 622 1079T638 1060T655 1041T672 1026Q703 1011 719 1001T744 983T755 970T762
958Q771 950 779 946T795 936T812 925T833 905Q837 905 842 898T854 881T866 864T876 853Q892 842 915 831T959 807T996 776T1011 735Q1011 715 999 697T968 663T930 638T894 623Q886 621 877 611T858 588T840 567T828 557Q819 545 812 538T799 527T784 520T766
512Q762 507 756 496T743 472T726 451T705 441Q704 441 698 439Q695 438 693 438Q676 433 663 427T636 407L608 370Z" />
<glyph unicode="?" glyph-name="question" horiz-adv-x="740" d="M93 97Q93 110 100 126T120 157T148 182T179 192Q248 187 273 151T299 55Q299 39 290 28T268 10T241 0T214 -3Q187 -3 165 1T127 17T102 48T93 97ZM542 879V882Q531 915 522 941T500 988T469 1027T421
1062Q415 1067 409 1076T401 1090L357 1144Q343 1144 331 1148T308 1157T284 1167T259 1175Q236 1202 226 1219T216 1265Q216 1280 221 1297T241 1323H266Q292 1323 309 1311T342 1283T371 1251T406 1225L453 1211Q471 1202 486 1189T515 1160T541 1129T568 1100Q570
1099 576 1096T587 1090Q602 1081 617 1062T644 1021T664 976T672 938Q672 908 663 882T645 829L632 713Q630 702 624 694T610 677T595 662T581 649Q580 647 578 645Q574 641 574 637Q550 598 524 579T468 551T403 540T325 531Q314 528 310 524T303 513T298 500T290
483Q290 481 283 470T271 457Q262 438 259 414T250 369T232 333T191 318L167 324Q163 325 160 331T157 341Q155 377 154 412T153 486Q153 509 153 532T157 580Q157 613 172 632T212 661T267 675T328 681T386 687T433 701Q444 706 446 718T453 739Q459 750 465 751T482
753Q494 753 498 754Q509 756 517 773T530 811T539 852T542 879Z" />
<glyph unicode="@" glyph-name="at" horiz-adv-x="1540" d="M821 417Q822 420 825 426T831 439T838 454T843 464Q850 474 850 493Q849 495 849 498Q848 500 848 502T848 507Q848 511 843 518T831 526Q828 526 827 525T824 522Q822 522 820 521T815 519Q813 517
813 516T810 514Q808 513 807 512Q806 511 802 507T793 499T784 490T777 484L718 446Q716 443 711 438T701 428T690 417T682 410Q659 385 624 370T556 349H526Q511 349 497 349T468 355Q466 355 464 357T459 362Q438 373 424 394T402 439Q398 453 398 463T397 488V510Q397
524 401 538T412 567Q426 601 442 633T476 697Q483 705 488 714T499 730Q499 731 501 737Q502 739 504 742Q508 746 515 755T531 774T546 792T556 804Q560 812 569 815T584 825L668 896Q668 896 670 900Q671 901 672 903Q674 905 682 913T699 932T716 952T727 965Q729
967 732 969T738 974L739 976H745Q747 976 750 977Q758 979 763 983T774 995Q813 1026 852 1044T942 1071Q957 1075 973 1075T1007 1076H1016Q1027 1074 1033 1069T1047 1062Q1053 1059 1058 1059H1082L1084 1060Q1093 1067 1098 1074T1109 1090Q1123 1103 1136
1114T1170 1126H1182Q1196 1112 1202 1095T1208 1059Q1208 1027 1197 1002T1172 951Q1169 942 1168 935T1165 919Q1165 912 1161 908L1051 682Q1049 677 1049 675T1049 668Q1049 664 1049 661T1047 652Q1039 635 1031 617T1014 581V578Q1012 570 1010 565Q1008
560 1007 556T1004 550Q1002 546 999 541T995 528Q995 519 997 510T1011 500Q1022 500 1031 506T1049 519L1161 583Q1164 585 1167 587T1175 592Q1205 617 1234 643T1288 699T1330 761T1352 832Q1356 849 1357 868T1359 907Q1359 920 1356 936T1350 969Q1327 1025
1309 1069T1269 1145H1267L1196 1242Q1164 1254 1141 1271T1090 1304Q1056 1325 1029 1339T975 1358Q960 1356 953 1355T940 1353H923Q915 1353 910 1353T897 1351L860 1368Q831 1368 800 1364T748 1336Q686 1330 643 1318T568 1284T508 1231T450 1154L423 1126L385
1069Q378 1062 375 1051T372 1031L322 907Q317 896 314 881T308 851T304 822T300 796Q299 791 296 782T288 761T281 738T277 720Q282 636 302 569T350 445Q358 434 361 420T368 391T381 361T409 334Q420 311 435 286T471 246Q484 235 494 224T515 201T536 175T565
147Q577 145 592 141T621 131T647 122T665 116L727 97L821 99Q845 103 864 104T900 106Q930 106 946 103T971 100Q978 100 983 98T1004 95Q1017 95 1026 97T1042 104T1059 112T1082 118Q1084 120 1103 131T1145 155T1187 178T1208 189Q1240 189 1251 181T1263 159Q1263
142 1249 123T1224 92Q1210 71 1200 59T1182 42T1168 35T1154 33Q1141 33 1131 30T1109 22Q1083 11 1052 2T980 -7L983 -5Q977 -7 966 -7T943 -7H807Q793 -7 781 -7T762 -5Q732 -5 702 -1T640 11T579 25T520 38Q518 38 513 40T506 45Q478 66 448 87T385 125L350
131Q345 132 328 146T292 177T256 210T238 234L158 374Q150 393 137 432T112 514T91 595T82 652Q82 663 85 668T89 685L82 744Q82 766 87 800T99 870T113 938T123 990Q124 996 131 1010T144 1029Q154 1041 159 1053T167 1077T175 1102T187 1126Q192 1135 198 1139T210
1148T220 1158T224 1175L343 1296L428 1339Q430 1341 433 1345T442 1355L492 1372L627 1438L890 1490H947L999 1465L1025 1469L1096 1445Q1104 1442 1123 1435T1163 1419T1202 1402T1229 1387Q1242 1374 1252 1365T1273 1348T1295 1333T1321 1317Q1330 1312 1346
1292T1379 1249T1409 1204T1424 1175Q1427 1162 1427 1150T1428 1128T1433 1109T1450 1093Q1458 1059 1466 1022T1480 952T1491 896T1495 867Q1495 844 1491 832T1481 801Q1467 779 1456 765T1445 740Q1431 722 1425 708T1412 681T1396 656T1369 628Q1333 599 1310
581T1265 548T1220 520T1161 486L1096 431L1087 424Q1085 422 1077 415T1066 407Q1057 399 1047 397T1026 389Q1011 378 998 365T969 344L935 334H931L866 344Q864 345 861 346Q859 347 857 348T853 349Q849 354 842 359T833 368Q826 378 824 387T821 407V417ZM580
502Q580 488 584 478T599 462Q603 458 608 455T618 452Q644 452 662 462T699 491Q713 503 733 523T774 562Q797 584 821 609L904 720L947 766L994 862L1014 941Q1014 943 1015 946T1016 951Q1016 959 1014 969T1006 984Q1005 986 1004 988T1002 992L999 995H995Q991
995 990 996Q988 996 983 996T978 998H962L959 996Q956 996 949 993T932 985T915 977T902 972Q897 971 895 969T890 962Q887 960 878 952T858 935T838 917T826 907L817 896H805L729 815Q716 802 713 785Q711 780 710 774T706 763Q698 750 688 741T670 721Q668 718
665 713T658 701T651 691T648 685L584 571V562Q582 548 581 533T580 502Z" />
<glyph unicode="A" glyph-name="A" horiz-adv-x="1380" d="M-33 38Q-33 57 -21 67T9 82T43 91T72 102Q75 104 80 108T91 118T103 128T112 135L160 159Q169 163 182 182T209 224T235 270T252 304Q254 306 255 315T256 329Q257 333 260 339T263 348Q265 350 270
357T281 373T291 388T297 398Q298 399 299 405T301 419T303 434T304 443Q310 475 321 507T344 572T365 637T377 704L446 894Q460 934 462 978T477 1066Q494 1105 518 1142T562 1223Q569 1245 570 1269T586 1315Q591 1322 611 1342T654 1383T699 1420T731 1436Q750
1436 757 1422Q762 1418 767 1409T773 1398Q778 1380 787 1362T802 1323L801 1301Q801 1287 807 1272T818 1246Q829 1211 837 1178T851 1112Q855 1092 864 1076T873 1038L872 1022Q890 1006 899 993T913 967T924 938T942 900Q952 880 957 863T965 827T973 789T986
746Q987 741 992 729T998 713V675Q998 673 1002 666T1011 651T1020 634T1024 623Q1024 622 1024 618T1025 608T1027 597T1029 592L1057 564Q1064 558 1066 550T1069 533T1071 514T1077 495Q1089 467 1098 438T1122 379Q1131 358 1137 335T1143 289V277Q1156 254
1172 236T1198 201Q1207 179 1217 166T1236 145T1255 133T1273 123Q1295 110 1318 104T1378 92L1406 85Q1419 77 1422 62T1425 35Q1425 14 1409 5T1375 -5L1290 0H1269Q1264 4 1256 6T1238 10T1222 11T1212 12H1093Q1085 23 1079 24T1060 26Q1019 26 975 16T880
5H858Q842 5 828 6T802 14Q797 17 797 31L799 47Q801 52 801 56T801 62Q801 69 807 71Q825 79 848 83T892 92T927 106T942 133V135Q941 158 939 187T936 246Q936 256 930 267T922 287V348Q920 361 910 389T884 446T850 495T814 517Q788 517 761 506T705 495Q681
495 660 504T609 514H545Q524 514 503 512T463 498Q432 480 406 450T368 374L361 304Q361 302 359 294T355 277T351 261T349 251Q349 249 348 245T347 237Q347 219 353 211T368 187Q373 178 381 163T399 137Q413 125 436 118T483 103T522 83T539 50V43Q534 4 510
-8T448 -21L361 2H325Q307 2 288 1T252 -2T221 -7T200 -16Q175 -16 151 -17T107 -19T75 -20T60 -21Q47 -21 31 -17T1 -5T-23 13T-33 38ZM482 716Q481 705 480 695T479 675Q479 647 492 638T532 628Q535 628 537 630Q538 631 539 633Q541 633 552 635T569 638Q578
637 586 635T600 633H757Q825 633 825 695Q825 704 819 718T803 748T786 783T773 818Q773 825 768 830L721 900Q721 905 718 910T712 920L707 941Q702 962 695 992T678 1049T656 1095T628 1114Q619 1114 605 1088T575 1022T542 934T512 841T491 763T482 716Z" />
<glyph unicode="B" glyph-name="B" horiz-adv-x="1351" d="M86 33V38Q89 41 102 46T133 58T171 70T209 81T239 90T254 95Q272 120 281 146T294 200T299 256T304 315Q311 338 315 359T320 403Q320 420 312 433T304 462Q304 488 312 514T320 564Q320 572 319 577T317
588T314 598T313 611Q313 621 315 628T321 642T327 655T330 670L304 772Q304 787 312 797T320 825L313 855V919Q313 922 311 927T306 939T301 950T299 957Q299 983 304 1003T309 1043L304 1202Q299 1212 293 1218T280 1228T265 1236T247 1249Q230 1274 202 1283T147
1297T101 1312T81 1346Q81 1364 95 1373T130 1387T170 1393T202 1394H238Q256 1394 277 1394T316 1392T348 1388T363 1382L686 1394L768 1389L809 1394Q845 1379 880 1370T947 1349T1009 1319T1063 1266Q1085 1234 1100 1211T1126 1164T1140 1113T1145 1048Q1145
1019 1138 984T1117 919Q1106 902 1095 891T1070 871T1043 854T1012 836L1001 815Q994 806 976 802T938 793T904 779T889 751Q889 742 907 735T948 722T994 711T1027 702Q1056 687 1078 672T1127 640L1160 618Q1174 591 1193 563T1229 506T1259 445T1271 379Q1271
342 1269 309T1252 251Q1247 242 1233 226T1201 189T1161 146T1119 106T1082 74T1053 57Q1018 57 1005 53T987 48Q934 31 891 20T795 5L750 -10Q723 0 695 0Q661 0 634 -10Q576 -5 520 -1T403 3Q355 3 306 -6T202 -16Q197 -16 179 -14T140 -5T103 10T86 33ZM505
303L519 256Q522 217 523 196T528 162T545 141T583 119Q593 114 599 110T612 102Q633 93 652 81T698 69Q717 69 728 75T756 81L802 76Q814 76 828 82T857 97T883 116T904 135Q909 137 918 145T938 164T956 183T970 197Q974 211 982 224T998 250T1012 278T1018 310Q1018
354 1015 398T1000 484T969 563T913 630Q881 653 851 667T781 687H730Q689 691 656 699T589 708L531 702Q529 698 526 691T519 675T512 659T505 649Q505 633 508 624T512 602L498 462Q498 435 505 404T512 339L505 303ZM525 761L538 744L595 763Q630 767 668 770T743
773Q762 773 769 773T781 772Q810 796 833 826T875 890T909 958T937 1026V1043L923 1069Q913 1105 898 1141T861 1207T808 1257T736 1282Q734 1282 728 1283T714 1284T701 1286T693 1287Q680 1289 669 1295T646 1308T623 1320T596 1325Q589 1325 576 1318T549 1301T525
1279T512 1259V1218L519 1138Q519 1122 516 1105T509 1070T502 1036T498 1005Q498 940 509 879T525 761Z" />
<glyph unicode="C" glyph-name="C" horiz-adv-x="1465" d="M108 529Q108 532 107 538T104 550T101 562T99 571Q97 578 97 582T97 590Q97 598 99 603T106 618L94 818L99 874Q101 877 103 881Q105 884 106 886T108 891Q117 912 122 931T134 971Q139 991 139 1009Q139
1031 147 1045Q160 1075 176 1102T217 1167Q219 1170 221 1173T225 1180Q234 1193 244 1209T256 1227Q268 1245 279 1254T307 1278Q341 1304 367 1326T429 1370L454 1381Q463 1384 474 1389T497 1401T520 1412T540 1420L642 1434Q646 1434 655 1437T668 1445Q711
1446 737 1447T786 1448Q817 1448 847 1447T907 1445Q926 1440 938 1438T957 1434T967 1432T973 1432Q985 1433 992 1433T1006 1434T1021 1434T1042 1434Q1053 1428 1066 1417T1090 1406Q1094 1406 1098 1409T1104 1412H1163Q1176 1414 1187 1420T1210 1434T1233
1447T1258 1453Q1275 1453 1287 1443T1300 1412V1246Q1301 1241 1303 1230T1305 1214Q1314 1166 1326 1116T1338 1017Q1337 1011 1333 1004T1324 991T1313 981T1305 976Q1305 974 1298 974Q1278 974 1264 983T1239 1006T1224 1036T1217 1066V1099Q1215 1113 1212
1121T1203 1136T1192 1150T1177 1168Q1166 1179 1164 1192T1153 1220Q1151 1224 1144 1228T1135 1232L1071 1278Q1071 1279 1067 1283T1057 1293T1048 1304T1042 1311Q1031 1317 1030 1317Q1028 1315 1016 1315Q1009 1315 1009 1317Q988 1321 969 1330T933 1348L812
1353Q805 1361 798 1363T781 1365Q747 1365 723 1359T679 1342Q678 1340 677 1339Q675 1337 673 1337Q659 1326 643 1320T609 1309T576 1297T545 1278L507 1246Q506 1244 497 1238T487 1227Q482 1216 470 1207T454 1195Q446 1184 443 1172T435 1157L412 1124L384
1060L371 1002Q370 1000 367 995T359 985T350 975T343 971Q343 970 342 963T341 947T339 928T338 913V886L343 784L355 735L343 680Q343 632 356 584T384 491Q386 490 402 467L412 439Q415 431 421 424T434 409T449 396T461 384Q466 366 468 359T472 350T477 346T487
337Q494 334 498 328T507 313T515 297T526 284Q545 281 558 281T583 268Q607 248 628 234T670 209T716 191T770 178L822 163Q848 163 864 170T897 178Q912 178 925 168T954 157Q967 157 975 165T997 178Q999 178 1009 180T1023 183Q1027 183 1036 188T1049 197Q1083
202 1092 205T1104 209Q1105 210 1109 213T1117 221T1126 230T1132 237Q1136 237 1145 242T1164 254T1185 268T1203 279Q1208 282 1210 286T1217 296Q1232 317 1247 327T1279 358Q1283 362 1290 370T1300 384Q1301 386 1304 396T1312 408Q1325 419 1337 423T1362
427Q1369 427 1374 421T1383 407T1389 390T1391 374Q1391 354 1382 339T1362 309T1341 281T1326 247Q1322 244 1313 237T1295 220T1278 203T1268 190Q1246 161 1228 150T1194 126Q1187 117 1184 108T1168 93Q1154 85 1137 79T1099 67Q1067 47 1042 40T990 24L950
2Q897 -1 877 -6T853 -12Q821 -11 810 -7T794 -2L732 -22Q721 -21 709 -20T684 -18T662 -14T647 -7Q620 0 591 3T535 19L461 48Q459 50 449 52T435 55Q406 93 402 93H378Q370 98 360 112T338 145Q338 157 325 160T301 163Q295 166 293 171T290 183T286 197T279
209Q277 214 269 223T256 237Q249 241 245 243T238 246T232 251T224 263L199 301L177 325Q177 360 172 374T165 389Q165 393 163 406T158 422Q138 431 133 435Q129 438 127 439L108 529Z" />
<glyph unicode="D" glyph-name="D" horiz-adv-x="1643" d="M105 61Q105 76 119 83T154 94T201 104T247 120T283 151T297 206L290 239Q290 246 294 250T303 259T312 268T316 282L308 351L313 391Q315 396 315 412Q315 444 306 467T296 514Q296 528 297 531Q309
569 316 609T323 687Q323 703 316 709L308 891Q304 908 297 928T290 969Q290 971 291 974T297 991Q297 1039 293 1085T285 1182L287 1213Q287 1214 282 1219T271 1230T259 1242T254 1251Q256 1256 257 1260T258 1268Q258 1273 257 1278T254 1289Q253 1294 241 1300T210
1313T172 1325T134 1337T105 1348T93 1358Q93 1372 101 1381T121 1396T147 1404T176 1406Q199 1397 223 1396T271 1394Q332 1394 382 1400Q421 1404 464 1409T543 1420Q564 1427 575 1430T588 1434Q600 1434 606 1433T617 1431H719Q724 1429 731 1429T745 1429Q752
1429 758 1429T771 1431Q830 1431 884 1416T995 1384Q997 1384 1009 1382T1036 1376T1064 1371T1081 1368Q1083 1368 1088 1364T1101 1355T1113 1346T1121 1342L1168 1336Q1168 1336 1171 1333T1179 1326T1187 1319T1193 1315Q1221 1294 1253 1283T1318 1251Q1350
1213 1389 1175T1463 1097Q1464 1096 1465 1093T1469 1083T1475 1062T1484 1028Q1484 1016 1488 1012Q1488 1009 1493 1003T1504 990T1517 977T1526 969Q1526 949 1530 934T1539 904T1548 877T1552 851L1548 794L1560 716Q1560 686 1555 658T1543 603T1528 549T1514
491V453Q1514 452 1508 444T1501 431Q1492 409 1481 388T1457 346T1434 302T1413 256L1328 182L1271 149Q1264 149 1264 144Q1242 114 1210 90T1138 66L1086 71Q1077 71 1065 65T1041 54Q1038 54 1029 53T1011 50T993 47T982 45Q979 45 966 42T936 36T902 28T875
22Q863 12 844 12Q837 12 826 14T794 22Q793 22 788 21T776 17T762 14T751 12Q744 14 733 18T718 22Q673 16 631 14T546 12Q502 12 461 14T377 22Q351 27 333 28T289 29L175 7Q163 7 151 10T128 19T112 36T105 61ZM510 320Q510 273 540 230T614 155T710 104T802
85Q856 85 899 97T988 135Q1001 143 1011 147T1032 156T1052 167T1076 182Q1112 208 1146 238T1211 306L1216 332Q1220 349 1226 361T1239 386T1252 410T1264 439Q1264 440 1265 446T1267 459T1269 472T1271 479Q1278 497 1287 515T1304 553T1317 592T1323 633Q1318
647 1317 652T1316 663Q1316 668 1317 675T1318 683Q1316 691 1313 713T1308 759T1303 806T1301 837Q1292 849 1290 865T1287 896Q1287 909 1288 918T1289 936Q1272 948 1265 965T1254 1002T1246 1040T1230 1076Q1229 1078 1225 1082T1216 1092T1207 1102T1202
1107L1185 1130L1129 1187Q1106 1209 1087 1234T1041 1277Q1022 1290 1005 1295T969 1306T932 1320T892 1348Q880 1358 854 1364T797 1373T740 1378T699 1379Q653 1379 600 1373T503 1348Q495 1344 490 1329T481 1294T476 1252T474 1213V1183Q474 1147 483 1115T493
1043Q493 1038 491 1030T486 1019Q483 998 482 977T481 936Q481 919 482 902T486 868Q493 848 494 835T496 808Q496 795 496 784T493 756L495 732L493 714Q488 705 487 699T486 682V666Q486 621 489 573T498 479Q502 452 510 425T519 372L510 320Z" />
<glyph unicode="E" glyph-name="E" horiz-adv-x="1418" d="M52 59Q52 78 66 90T101 109T143 120T178 123H259Q268 125 282 134T309 155T333 183T346 213Q349 234 349 258Q349 277 346 298L360 320Q346 371 341 422T336 522Q336 532 337 547T341 577T347 607T353
633Q354 636 356 640Q360 648 360 650Q363 657 367 663Q369 668 371 673T374 682Q374 690 366 696T353 702Q355 735 356 768T358 834Q358 868 357 900T353 967Q348 981 347 987T346 1005L353 1064L346 1171Q346 1183 336 1198T311 1226T283 1249T259 1261H187L179
1265Q176 1267 173 1268T168 1270Q154 1274 137 1276T104 1285T79 1302T69 1336Q69 1354 74 1363T88 1377T111 1383T142 1384Q169 1384 194 1382T237 1367Q242 1368 247 1369T256 1370H275Q323 1370 374 1363T469 1351L526 1341Q539 1341 552 1345T580 1355T609
1365T637 1370Q647 1370 654 1365T676 1360Q681 1360 685 1365T701 1370Q711 1370 716 1369T727 1360H766Q787 1360 810 1367T856 1375Q870 1375 878 1373T901 1360L1081 1351Q1094 1350 1105 1348Q1115 1346 1126 1345T1145 1341Q1150 1341 1157 1340T1170 1336T1180
1328T1185 1315Q1188 1306 1191 1286T1196 1242T1200 1199T1202 1171Q1207 1137 1210 1102T1213 1033H1197Q1175 1033 1161 1067Q1152 1079 1148 1083T1142 1093Q1128 1112 1114 1134T1087 1177T1066 1213T1054 1237Q1042 1242 1029 1244T1004 1249T982 1256T965
1272Q957 1287 934 1287Q925 1287 924 1285Q919 1284 912 1283T896 1282Q879 1282 862 1283T834 1285Q827 1285 825 1287T818 1289Q816 1289 815 1290T811 1292Q789 1295 767 1296T723 1297Q701 1297 680 1296T637 1292Q630 1290 621 1284T604 1270T588 1252T579
1235Q571 1201 569 1159T567 1071V967Q558 956 556 945T554 917V882Q554 858 555 835T563 790T580 748T612 708L773 702Q792 702 810 709Q815 711 822 712T836 714L875 713Q892 713 906 723Q914 725 924 730T945 743T965 758T979 772Q985 784 992 811T1009 865T1030
913T1057 934Q1070 934 1081 915V823Q1081 810 1079 800T1069 772L1057 756L1062 723Q1062 719 1064 700T1068 655T1072 603T1074 559L1069 522Q1069 505 1075 493T1081 471Q1081 445 1072 426T1036 407Q1023 407 1016 411T1006 422T1001 437T1000 455Q1000 462
1000 467T998 479L970 528V559Q969 572 947 584T892 606T820 624T743 638T675 647T630 650Q612 650 599 639T576 611T561 576T554 543V464L567 310V223Q569 200 585 177T625 135T674 104T721 90L792 85L811 78H875Q899 78 919 78T959 79T1000 81T1048 85L1128 116Q1144
127 1167 148T1212 192T1254 239T1282 277Q1287 280 1292 292T1303 319T1318 345T1339 356Q1350 356 1355 347T1360 329L1342 266Q1327 214 1313 161T1294 52Q1273 20 1241 14T1175 7Q1164 7 1153 7T1133 5L1112 0Q1102 0 1096 2T1085 6T1075 10T1062 12L998 5L965
12L811 0Q738 0 665 6T514 12L386 0L296 5Q278 5 261 1T228 -8T197 -17T168 -21Q151 -21 131 -16T94 -1T64 24T52 59Z" />
<glyph unicode="F" glyph-name="F" horiz-adv-x="1301" d="M1127 1208L1078 1259Q1053 1281 1032 1295T989 1317T947 1329T899 1332Q890 1332 888 1330Q861 1330 846 1330T822 1330T812 1330T809 1329H732Q715 1324 697 1323T662 1322Q624 1322 605 1321T573 1313Q562
1309 560 1303T558 1291Q558 1270 553 1261T530 1240Q527 1238 526 1230T523 1212T521 1192T520 1176Q520 1153 527 1132T534 1085L525 1022Q525 999 535 976T546 926L530 777Q530 768 538 757T551 739Q582 735 614 728T677 720Q684 720 689 721T700 734Q711 735
726 736T762 737Q789 737 820 737T881 740T936 748T975 765Q989 774 996 791T1008 827T1015 867T1023 903T1039 930T1070 941Q1076 941 1081 939T1092 926V884Q1092 836 1082 792Q1077 757 1073 729T1068 671Q1068 646 1075 623T1091 577T1107 531T1115 484Q1115
469 1115 462T1110 452Q1105 444 1103 440T1092 436Q1077 436 1070 447T1051 469L1037 500Q1026 524 1016 546T993 587T962 624T919 656H874Q839 656 802 657T738 664L677 675Q651 675 621 666T563 656Q554 645 542 629T530 593Q546 519 557 448T568 304Q568 270
567 259T563 240Q571 216 585 198T619 165T659 138T700 116Q701 116 706 110T712 102Q716 100 730 99T748 97Q756 97 761 97T774 99Q782 100 787 100T800 100Q807 100 815 100T829 99Q836 97 842 97T855 97Q860 92 867 87T881 75T892 60T897 42Q897 31 892 20T879
-2T860 -19T840 -26H838Q827 -28 814 -28T790 -29Q776 -29 764 -29T731 -26L712 -21Q695 -12 674 -5T631 7T586 14T544 17Q523 17 508 16T468 7Q445 3 421 2T373 0Q347 0 325 1T276 7Q264 3 254 -6T226 -19Q219 -17 214 -16T201 -14Q196 -16 186 -16H148Q125 -8
111 0T89 31Q89 63 122 85Q146 87 184 98T259 127T321 170T348 225Q348 278 346 316T340 391T334 466T331 562Q331 579 334 595T341 628T348 661T352 695Q352 698 352 703T351 713T351 723T350 728L338 772V849Q338 866 334 883T326 917T318 950T314 983Q314 987
315 996T319 1010Q323 1030 325 1050T328 1092Q328 1112 326 1131T319 1171Q319 1189 311 1206T289 1240T259 1268T229 1287Q211 1294 180 1296T118 1303T65 1322T42 1367V1382Q58 1391 81 1400T122 1410H146Q160 1410 173 1407T196 1393Q213 1390 230 1388T264
1386Q279 1386 297 1388T333 1393Q338 1401 340 1402T350 1403Q371 1403 391 1395T437 1387H459Q470 1387 482 1387T508 1393Q544 1387 587 1387Q627 1387 668 1393Q705 1406 746 1406T833 1410Q856 1412 876 1413T918 1415Q933 1415 949 1414T982 1410Q986 1408
992 1404T1005 1394T1018 1386T1027 1382Q1036 1382 1042 1385T1059 1393Q1075 1397 1092 1398T1127 1400Q1158 1400 1189 1393Q1191 1393 1198 1387T1214 1373T1230 1359T1238 1351V1208Q1258 1159 1258 1109Q1258 1097 1258 1085T1254 1061T1242 1043T1220 1036Q1214
1043 1206 1053T1190 1073T1174 1094T1161 1112Q1161 1114 1157 1123T1148 1143T1139 1163T1132 1176Q1130 1178 1129 1192T1127 1208Z" />
<glyph unicode="G" glyph-name="G" horiz-adv-x="1630" d="M109 509Q109 518 112 523T116 541Q116 551 111 555T95 567Q92 586 92 604V678Q92 689 92 697T95 716Q102 725 103 729T104 739L90 785L104 844Q104 856 100 866T95 887Q95 895 99 901T109 913T120 925T128
939L137 971Q151 1024 183 1065T259 1145Q260 1166 276 1187T317 1230T372 1271T433 1308T491 1338T536 1360Q559 1369 583 1373T633 1389Q642 1391 668 1394T723 1401T780 1408T818 1413Q832 1412 843 1411T867 1410H964Q977 1410 990 1410T1016 1408Q1028 1401
1050 1393T1097 1377T1146 1365T1185 1360Q1206 1360 1218 1369T1239 1391T1259 1412T1287 1422Q1300 1422 1309 1416T1323 1399T1331 1379T1334 1360L1339 1254Q1343 1246 1345 1240T1348 1228Q1348 1210 1351 1204Q1351 1197 1353 1184T1359 1157T1364 1133T1367
1121Q1369 1105 1373 1094T1381 1073T1389 1051T1393 1024Q1393 1021 1389 1017T1380 1008T1369 1001T1360 998Q1336 998 1314 1013T1274 1052T1242 1100T1218 1145L1211 1157L1206 1183L1173 1214Q1170 1217 1165 1223T1153 1238T1141 1255T1131 1268Q1120 1284
1102 1292T1064 1306T1022 1315T984 1327Q970 1334 960 1340T939 1350T917 1357T887 1360Q864 1360 843 1348T798 1332L727 1327Q681 1319 640 1296T563 1242T493 1174T431 1104Q422 1092 420 1075T413 1040Q405 1018 391 996T364 950T340 903T329 855Q329 850
330 837T333 806T335 768T336 728L334 694L349 670V614Q354 560 362 510T396 412Q407 392 421 377T449 347T477 316T503 280Q508 271 519 270T541 259Q589 189 654 153T798 95Q818 91 831 85T862 78Q870 78 881 81L893 85Q899 85 912 86T941 88T971 92T993 95Q994
95 1006 103T1037 123T1077 149T1116 176T1148 199T1164 211V242L1159 301Q1159 322 1161 340T1164 372V393L1154 412V462Q1152 480 1144 491T1125 513T1106 533T1095 557V588L1090 616Q1092 625 1102 630T1127 638T1159 641T1190 642H1223L1296 630Q1319 630 1340
633T1377 640L1382 642H1564Q1567 642 1575 640T1591 634T1605 624T1611 611Q1611 590 1592 578T1547 559T1497 547T1462 535L1403 462Q1407 453 1412 440T1417 412L1403 301Q1403 285 1410 277T1417 259Q1417 236 1414 210T1401 161T1376 119T1334 95L1280 90Q1266
88 1248 79T1210 57T1173 32T1142 12Q1130 5 1117 4T1095 3H1059Q1038 3 1022 1T984 -10H818Q774 0 725 0Q702 0 679 1T633 3Q622 3 616 7T604 17T593 28T580 36Q577 39 566 43T541 52T517 59T503 62L439 95Q433 95 420 99T398 104Q384 107 361 128T312 175T265
227T234 265Q234 269 225 280T211 296L201 322Q199 325 192 330T178 341T165 352T159 360L149 424Q146 434 140 444T127 464T115 485T109 509Z" />
<glyph unicode="H" glyph-name="H" horiz-adv-x="1756" d="M104 7H92Q73 11 73 26Q73 44 76 55T101 76Q118 84 140 89T184 99T225 110T258 128Q268 136 275 148T288 173T298 200T307 225L317 464L307 522Q307 527 309 537T314 554Q309 592 308 632T307 714Q307
751 308 788T314 863L312 884Q312 888 309 911T302 962T295 1020T291 1066L286 1097L291 1152Q291 1173 291 1195T286 1233Q280 1254 264 1266T227 1285T184 1296T142 1304T111 1315T99 1334Q99 1345 103 1346T116 1355L125 1358Q170 1363 216 1365T307 1368Q322
1368 336 1366T364 1362T393 1358T428 1356L634 1368H713Q731 1360 731 1353Q731 1344 725 1338T711 1328T693 1322T677 1320H632Q621 1320 612 1319T594 1311Q562 1294 537 1274T480 1233Q471 1233 471 1228Q483 1208 487 1187T492 1145Q492 1129 487 1114T475
1083L471 1067Q471 1048 473 1034T479 1005T487 977T497 943V843L500 810Q500 808 500 799T497 782Q497 771 508 757T530 735H556Q577 735 592 738T627 746H675L859 735L930 740Q950 740 962 732T988 723Q1009 723 1027 729T1063 735L1161 723L1205 727Q1210 728
1221 734T1237 746Q1237 746 1241 748L1244 751Q1247 766 1250 786T1256 827T1260 869T1262 907Q1262 922 1256 938T1250 971Q1250 992 1256 1012T1269 1052T1282 1090T1288 1128Q1288 1180 1262 1212T1196 1272Q1189 1278 1172 1281T1133 1285T1088 1288T1045
1294T1012 1305T999 1327Q999 1342 1006 1350T1022 1363T1043 1373T1063 1384H1120L1511 1356H1530Q1542 1356 1542 1358L1570 1368H1661Q1672 1368 1679 1360T1687 1339Q1687 1323 1674 1315T1642 1302T1605 1296T1575 1292Q1547 1287 1527 1267T1487 1220Q1484
1172 1476 1127T1457 1033Q1455 1029 1450 1018T1445 1002L1450 922L1445 837Q1445 833 1447 822T1450 810L1445 780Q1445 774 1447 768T1450 751L1436 654L1457 585L1433 498L1445 455Q1445 441 1439 427T1433 394L1450 329Q1450 313 1442 299T1433 263Q1433 143
1506 104Q1526 92 1557 90T1613 88Q1622 88 1629 87T1644 85Q1665 81 1669 66T1673 36Q1672 25 1662 18T1646 7Q1600 -4 1552 -7T1449 -10H1412Q1403 -10 1395 -10T1379 -9L1255 7L1142 -3L1106 -9H1035Q1019 -9 1007 2T995 21Q995 39 1001 50T1018 67Q1029 72
1041 74T1064 76H1090Q1101 78 1104 84T1115 97Q1130 108 1150 116T1188 135T1218 160T1231 197L1224 259Q1224 297 1228 333T1237 405Q1239 416 1244 425T1250 443Q1250 450 1250 456T1244 469V609Q1244 624 1231 636T1198 658T1159 671T1125 676Q1117 676 1110
673T1094 665T1078 658T1059 654L983 668Q972 668 963 663T944 652T922 640T891 635Q872 640 858 644T829 650T800 654T765 656H732Q721 656 714 655T705 654Q691 650 677 647T644 644Q638 646 628 647T608 650T591 653T582 654L554 676Q545 676 535 667T520 654Q507
645 499 638T487 623T482 603T480 576Q480 550 482 520T492 464Q493 461 494 456T496 443T499 431T500 422Q502 422 502 413Q502 403 500 394T497 370L502 313Q502 310 500 308L492 284Q493 279 494 275Q496 265 497 263Q501 254 501 243T502 221V197Q502 175 505
155T530 119Q534 117 544 114T565 107T586 101T601 97H622L718 102Q773 102 777 50V48Q777 39 773 29T759 11T733 -3T693 -9Q672 -7 663 -2T642 7Q621 14 587 14H566Q562 14 557 13T547 10Q543 9 539 8T530 7L433 12H357Q352 12 342 12T322 10T303 9T291 7L270
-9Q226 -9 184 -3Q163 2 144 4T104 7Z" />
<glyph unicode="I" glyph-name="I" horiz-adv-x="880" d="M427 26Q413 26 399 23T369 15T339 7T306 3L261 9Q246 9 234 6T208 3H135Q126 3 119 4T106 7Q68 15 68 55Q68 67 70 75T90 92Q107 99 132 102T185 107T236 113T275 126Q281 129 289 142T305 170T318 200T324
220L312 301L334 349L312 391L334 621L327 725Q322 730 322 747Q322 763 324 774T330 792T336 807T339 823Q339 849 331 872T322 924L334 995Q334 1005 334 1019T331 1048T325 1076T312 1099Q312 1103 314 1111T317 1135Q317 1148 315 1158T312 1173Q312 1178 310
1185T306 1192L242 1251Q230 1251 202 1257T144 1273T91 1296T68 1325Q68 1353 86 1362T125 1372Q133 1372 140 1371T154 1368Q196 1366 237 1361T320 1356Q352 1356 384 1361T448 1368Q462 1373 487 1376T539 1380T593 1383T635 1386Q667 1391 699 1398T763 1406Q784
1406 803 1397T822 1358Q822 1352 816 1347T801 1338T785 1330T777 1322Q774 1319 766 1312T748 1296T729 1281T715 1272Q700 1272 672 1267T615 1252T566 1226T545 1192V1045Q545 1044 546 1038T550 1024T553 1008T556 995Q566 988 566 976Q550 947 543 917T535
856L545 782L540 721Q540 707 543 693T551 665T558 636T562 605Q562 591 559 578T551 552T544 526T540 500Q540 486 542 476T550 450V327Q546 316 546 311T545 296Q545 258 553 228T576 164Q576 161 586 154T608 139T632 125T645 119Q666 119 679 123T706 128Q718
128 740 125T780 112Q790 104 798 95T806 74Q806 59 802 44T789 24Q777 12 758 12Q749 12 738 11T718 9L678 0Q657 0 633 0T584 2T536 5T493 9Q490 9 482 11T464 17T446 22T433 24Q432 24 431 25Q430 25 429 25T427 26Z" />
<glyph unicode="J" glyph-name="J" horiz-adv-x="831" d="M73 -576H56Q42 -578 29 -579T4 -580Q-12 -577 -41 -577T-101 -564Q-126 -550 -144 -525T-191 -472Q-191 -458 -187 -433T-174 -384T-152 -340T-119 -318Q-96 -313 -75 -313Q-58 -313 -41 -318Q-32 -318
-22 -326T-4 -347T10 -372T16 -396Q16 -397 15 -400T12 -409Q10 -414 9 -420Q11 -425 12 -434T18 -448Q26 -457 29 -466T32 -483Q30 -506 29 -511T23 -519L96 -522Q130 -522 151 -512Q172 -500 193 -484T233 -449T266 -408T290 -363V-294Q290 -292 297 -281T307
-268L295 -216L312 -137L305 -95L317 22Q317 33 317 40T312 64Q309 85 309 107V199Q309 211 309 221T312 246Q315 252 317 261T320 280T322 299T323 315Q323 332 314 344T305 372Q305 385 311 395T317 420L305 488L317 555Q310 584 310 590L326 654L312 853Q312
857 312 867T314 887T316 906T317 917L326 941Q318 964 315 974T312 986V1064L295 1102Q295 1112 297 1120T303 1136T309 1151T312 1166Q312 1178 307 1184T295 1196T284 1215T278 1253L279 1277Q269 1279 262 1284T248 1297T233 1310T215 1320Q204 1323 179 1328T127
1342T81 1360T61 1384Q61 1390 65 1400T77 1419T91 1436T105 1443L248 1431Q250 1431 255 1433T265 1438L366 1415Q377 1415 382 1418T399 1422L489 1415L703 1429H769Q778 1418 786 1410T795 1389Q795 1386 789 1381T774 1369T758 1358T746 1349H639Q631 1340
625 1336T613 1329T600 1324T582 1315Q562 1302 552 1284T536 1245T529 1203T528 1161V1133L549 1111Q549 1100 545 1090T536 1071T527 1050T523 1026L530 971L509 834Q509 823 511 810T515 784T520 759T523 740Q526 730 527 721T528 706Q528 697 527 692T523 683L509
607Q520 594 522 587T525 566Q525 562 522 554T502 517Q502 516 510 505T518 490Q519 488 519 482T521 468T522 455T523 445Q523 440 521 424T515 389Q512 369 511 352T509 332Q509 316 513 311T518 299Q518 286 510 278T502 254Q502 237 510 223T518 187L502 133L509
95Q509 78 504 65T497 35Q495 26 492 6T486 -37T480 -79T475 -107Q468 -116 466 -122T464 -138Q464 -162 464 -168T463 -176L440 -246Q436 -278 435 -310T418 -368Q406 -391 389 -409T359 -453L284 -531Q278 -536 262 -542T226 -555T192 -567T174 -576L91 -581Q78
-581 73 -576Z" />
<glyph unicode="K" glyph-name="K" horiz-adv-x="1479" d="M1354 -10Q1352 -10 1345 -11T1328 -13T1309 -15T1294 -16Q1285 -16 1266 -11T1225 1T1184 15T1155 28L1119 69Q1117 72 1116 77T1103 88Q1092 100 1078 110T1062 128Q1051 138 1047 147T1039 164T1031
180T1018 197L960 256L937 294Q932 308 920 321T892 345T860 368T830 389Q809 403 798 424T778 464Q769 476 755 485T728 505T704 527T690 559L596 649Q592 654 582 657T559 663T534 667T513 668Q504 668 496 663T482 649T472 632T468 614Q468 598 474 582T482
552Q484 520 486 484T489 413L477 375L482 346L489 289L501 256L489 201Q489 174 496 159T517 136T547 125T583 119H603Q607 119 617 115T639 106T658 95T666 86Q673 75 679 71T690 64T697 59T700 50Q700 -10 638 -10Q615 -10 592 -4T546 9T499 22T451 28Q417 28
384 20T313 12L261 17L185 12Q182 12 176 13T164 17T153 22T148 28Q153 60 173 70T219 83Q233 95 247 105T271 128T288 155T295 189Q295 213 295 221T292 234L297 299L313 330Q308 346 305 362T302 393V394Q302 398 303 404T305 416T307 426T309 431Q310 432 310
433Q310 435 311 436Q312 438 313 441L309 464V564Q300 585 294 605T288 645Q288 654 290 654L295 675Q292 696 291 708T289 728T288 740T288 749L302 798Q302 802 300 805T295 810L294 849L302 922Q302 936 298 948T294 972L302 998Q293 1043 292 1072T290 1128Q290
1138 284 1157T267 1195T244 1228T219 1242Q206 1242 198 1242T179 1244Q167 1250 151 1254T121 1266T96 1283T86 1311Q86 1323 88 1330T102 1341H124L216 1336L301 1339Q310 1339 320 1338T340 1330Q351 1326 362 1326T385 1325Q406 1325 429 1330L475 1346Q480
1348 485 1348T496 1348H520Q534 1348 546 1347T572 1341L612 1330Q616 1329 617 1317T619 1301Q619 1288 606 1277T574 1257T539 1241T513 1228Q507 1220 501 1202T490 1161T481 1119T477 1088Q477 1083 479 1079T482 1064L461 1019Q461 1011 463 1009T469 1005T475
1003T482 995V971Q482 956 475 941T468 912Q468 908 472 899T477 887V810Q475 808 472 805T468 798Q468 793 474 790T489 787Q498 787 503 791T512 802T521 816T534 829Q550 840 568 849T606 867T642 887T674 912Q695 932 704 959T724 1010Q728 1017 736 1020T752
1027T770 1033T785 1043Q792 1050 810 1072T848 1120T881 1171T896 1208Q896 1208 891 1216T880 1233T868 1251T861 1261L844 1259Q831 1259 818 1261T795 1269T778 1284T771 1306Q771 1315 776 1325T789 1343T807 1357T826 1363L847 1356L937 1349Q946 1354 979
1357T1051 1363T1126 1367T1176 1368Q1182 1368 1199 1366T1233 1359T1264 1346T1278 1323Q1276 1308 1267 1305T1242 1292Q1227 1284 1209 1275T1174 1257T1142 1244T1119 1239Q1106 1230 1101 1229T1095 1227L1065 1213Q1053 1213 1038 1201T1009 1172T983 1138T965
1112L949 1097Q906 1063 876 1025T809 943L795 931L766 926Q753 918 744 908T726 886T709 865T690 846Q685 846 685 841Q685 837 686 830T690 820V777Q698 777 714 767T749 742T789 708T828 671T859 638T878 616Q880 614 887 604T894 590Q903 573 916 561T943 538T972
513T998 479Q1000 474 1005 474Q1009 474 1016 474T1031 470T1047 460T1062 441Q1066 430 1071 418T1084 396T1100 379T1124 372Q1134 360 1148 347T1178 321T1209 293T1235 266Q1236 265 1241 259T1247 251Q1261 231 1280 216T1318 187T1355 157T1384 119Q1390
107 1408 104T1447 97T1482 81T1498 42Q1498 23 1491 10T1473 -11T1446 -22T1415 -26Q1404 -26 1396 -24T1382 -18T1369 -13T1354 -10Z" />
<glyph unicode="L" glyph-name="L" horiz-adv-x="1457" d="M39 50Q39 66 46 84T70 102L153 109Q178 114 202 118T248 128T291 146T328 178Q332 185 334 191T337 206Q337 222 345 235Q345 260 345 280T340 327Q338 339 338 347T338 360Q338 376 339 382T345 405Q345
434 344 453T343 491Q343 525 354 561L345 709Q343 713 342 725T340 742Q345 754 349 768T354 799Q351 828 351 855T345 912Q343 920 338 925T333 939Q333 950 338 954T345 964V1012Q345 1033 345 1059T342 1114T333 1170T316 1225Q311 1229 302 1235T285 1249T270
1261T262 1266Q253 1273 237 1278T200 1289T160 1301T122 1315T95 1335T84 1363Q84 1369 91 1373T108 1379T127 1383T141 1384Q153 1382 159 1382T169 1382Q177 1382 179 1384Q213 1386 249 1387T321 1389Q355 1389 386 1388T456 1384Q460 1379 465 1377T475 1375Q520
1379 552 1384T612 1394T664 1406T719 1417H743Q762 1417 789 1416T841 1410T883 1396T901 1368Q901 1359 900 1347T894 1325Q889 1317 865 1312T811 1304T754 1300T714 1299Q709 1297 704 1296Q699 1295 695 1295T686 1294L669 1289Q633 1285 614 1282T585 1273T573
1258T567 1230Q565 1213 565 1196T560 1156L546 1124Q546 1111 551 1096T562 1066T574 1034T579 1003L572 926L586 862Q586 839 582 822T572 784Q567 755 566 720T565 657L563 626Q563 601 572 593V391Q567 382 566 378T565 368Q565 353 572 341T579 317Q579 296
575 272T565 230Q565 228 564 224T562 215Q561 210 560 204Q563 188 579 172T616 143T659 122T696 114L740 123Q744 123 750 119T773 114Q786 114 796 121T823 128L854 114L918 109L946 102H963Q991 106 1018 109T1072 118T1124 133T1170 161L1173 164Q1177 168
1177 173Q1182 189 1190 199T1207 218T1227 234T1248 253Q1262 264 1273 284T1298 322Q1308 332 1322 343T1351 364T1380 380T1407 386Q1412 386 1420 385T1435 382T1448 377T1454 368Q1454 346 1450 332T1439 305T1422 282T1402 258Q1398 253 1396 244T1394 228Q1394
222 1395 213T1397 199Q1394 186 1388 175T1373 155T1356 138T1343 123L1338 92Q1327 41 1294 16T1210 -9L1131 7L1099 -9H990Q970 3 955 5T918 7Q895 7 875 -1T837 -9H823L669 12L650 19H560Q549 30 542 31T520 33Q509 33 504 32T489 24H328Q313 12 281 5T214
-7T145 -12T94 -14Q81 -14 71 -8T54 7T43 28T39 50Z" />
<glyph unicode="M" glyph-name="M" horiz-adv-x="1926" d="M84 31Q84 47 87 52T99 64Q115 75 139 87T188 111T236 134T274 154Q296 193 305 237T314 327V356Q314 364 314 372T315 388Q316 390 317 395T319 406T320 417T321 426L333 446L334 483Q334 488 333 494T321
514L338 569Q338 577 337 582T333 592Q331 594 329 600T327 612V631L338 709L327 777Q327 800 337 823T348 868L343 907Q343 923 346 941T354 977T363 1015T367 1054Q363 1060 355 1070T343 1088Q343 1101 341 1121T331 1159T311 1191T279 1204L196 1197H175Q154
1200 136 1203T103 1212T80 1231T71 1265Q71 1283 73 1292T81 1305T97 1310T125 1315L149 1325H182Q250 1325 312 1317T440 1308Q456 1308 467 1311T492 1315Q546 1294 573 1260T615 1171L616 1159Q619 1139 622 1127T631 1106T650 1089T684 1069L682 1048Q682
1033 685 1019T694 990T705 960T713 927Q713 924 714 917T716 901T719 886T720 877Q726 862 737 844T761 806T785 768T805 734Q831 679 855 623T902 510L931 462Q937 451 940 439T947 416T959 400T980 393Q995 393 1001 396T1009 406T1012 422T1018 446Q1018 448
1027 454T1039 462Q1058 487 1071 515T1094 574T1114 636T1134 697Q1134 698 1138 708T1148 730T1159 755T1167 772Q1182 810 1191 842T1217 908L1224 927Q1244 965 1266 1006T1315 1074Q1315 1090 1313 1097T1310 1109Q1310 1114 1312 1124T1317 1146T1322 1167T1324
1180Q1326 1184 1328 1196T1331 1213L1352 1235Q1352 1238 1353 1245T1354 1260T1356 1274T1357 1282Q1363 1295 1377 1305T1409 1322T1444 1332T1473 1336Q1493 1336 1513 1325Q1534 1318 1556 1318L1646 1336Q1682 1336 1709 1335T1775 1325Q1805 1320 1805 1292Q1805
1266 1787 1252T1742 1228T1684 1212T1626 1197T1581 1175T1563 1138Q1563 1117 1570 1098T1585 1058T1601 1018T1608 976L1592 882V682Q1597 674 1597 661L1601 554L1623 516V452Q1623 450 1623 443T1625 426T1627 409T1628 398Q1630 382 1633 352T1640 287T1651
222T1668 175Q1679 156 1698 147T1739 131T1785 121T1826 110T1857 89T1869 52Q1869 32 1859 21T1834 4T1802 -3T1772 -5H1720Q1699 -5 1676 -4T1631 -1T1594 3T1571 10Q1568 12 1551 12H1532L1424 -5L1331 5Q1327 5 1320 1T1310 -5Q1292 -5 1274 -2T1242 8T1218
26T1208 55Q1208 77 1237 85Q1249 86 1260 87T1284 88Q1321 88 1354 94T1410 130Q1411 135 1413 139Q1414 142 1415 145T1416 149Q1416 151 1417 154T1421 161L1428 185Q1434 208 1436 231T1438 277Q1438 306 1436 333T1428 391L1426 400Q1424 406 1424 415T1424
436Q1424 451 1424 468T1423 501T1418 529T1410 548Q1412 553 1412 555T1412 562V578L1390 742L1395 863Q1395 872 1394 886T1393 915T1391 940T1390 951Q1390 960 1390 977T1386 1011T1376 1041T1357 1054Q1353 1054 1350 1052T1346 1048L1331 979Q1317 973 1315
959T1312 929Q1312 921 1312 914T1310 900Q1294 871 1274 848T1237 798Q1232 793 1228 781T1220 754T1213 727T1208 708Q1195 673 1178 638T1141 569L1134 554Q1132 552 1131 539T1128 521Q1125 519 1120 514T1108 503T1097 492T1089 484L1075 412Q1072 398 1065
386T1051 363T1036 340T1025 315Q1025 313 1024 305T1022 287T1019 268T1018 256Q1018 253 1015 237T1006 201T997 167T990 149L966 121Q964 118 964 102Q964 94 963 84T958 64T948 49T931 43Q922 43 913 50T894 68T876 91T860 114Q860 116 856 121T852 130Q833
162 827 198T810 272Q808 281 798 301T774 343T749 387T731 420Q708 465 684 510T637 600L615 670Q586 735 554 791T490 908Q488 912 483 919T476 927L454 951Q451 957 451 964T449 977T444 987T430 991Q425 991 424 990T419 984L407 868V820Q407 786 407 754T409
687Q412 622 412 554Q413 551 415 545Q417 540 419 532T424 510L416 490Q416 473 412 461T407 422V405L426 368Q428 364 428 359T428 348V315Q428 289 430 264T445 223L523 135Q523 115 533 105T558 89T590 80T623 72T648 56T658 28Q658 25 658 20T656 9T651 -1T644
-5H549L523 5H499Q477 5 458 7T419 13T379 18T334 21Q324 21 314 13T293 0Q267 -2 240 -7T186 -12Q178 -12 167 -14T141 -17Q134 -17 126 -16T109 -9Q84 1 84 31Z" />
<glyph unicode="N" glyph-name="N" horiz-adv-x="1766" d="M217 102L232 106Q240 110 246 118T257 137T269 157T284 176Q284 187 281 192T277 202L308 240L336 479Q349 496 351 515T353 550L348 668Q348 684 350 693T357 718Q361 727 362 740T366 765V858Q366
863 369 870T374 879V1000L378 1059Q379 1060 381 1070T383 1081Q374 1113 370 1144T348 1202Q346 1202 345 1205Q344 1206 343 1208L303 1225L251 1277Q242 1284 228 1286T200 1290T171 1294T148 1304L115 1330Q110 1335 103 1336T84 1337L59 1336Q45 1341 35
1353T18 1382Q18 1400 32 1410T67 1425T107 1431T139 1432Q160 1425 179 1423T219 1420T260 1419T303 1415Q304 1415 312 1413T329 1408T348 1403T359 1400H372L445 1422Q453 1422 463 1418T484 1407T504 1393T520 1382L526 1374Q536 1356 552 1332T587 1283T625
1236T660 1202L708 1175Q712 1173 718 1165T724 1156L732 1130Q738 1119 742 1114T751 1104T762 1097T777 1086Q796 1067 809 1054T832 1028T850 999T867 957Q868 957 881 946T910 921T938 896T950 884L961 858Q961 855 964 850T970 838T978 827T985 820L1007 810Q1028
791 1051 769T1094 722T1131 672T1156 623L1256 528Q1271 485 1307 456T1386 427V467Q1386 476 1387 487T1390 507Q1390 508 1392 513T1397 525T1402 538T1405 548Q1405 559 1400 563T1395 573L1405 630Q1405 657 1401 691T1395 751Q1395 753 1395 759T1393 772T1391
785T1390 794V796Q1390 805 1392 811Q1393 814 1395 815L1404 834L1421 926Q1414 937 1412 947T1410 967L1416 1062L1410 1161Q1410 1172 1412 1180T1426 1194V1220Q1426 1232 1420 1247T1404 1276T1382 1302T1357 1317Q1355 1317 1349 1318T1336 1320T1323 1323T1314
1325L1291 1341Q1289 1342 1278 1344T1262 1346Q1242 1354 1227 1361T1200 1378T1178 1399T1156 1427Q1151 1434 1146 1434T1135 1446Q1137 1452 1147 1455T1170 1461T1194 1464T1208 1465Q1213 1465 1213 1464Q1217 1464 1227 1462T1243 1458Q1306 1452 1360 1445T1476
1438L1628 1453Q1641 1453 1655 1452T1682 1447T1702 1433T1710 1406Q1710 1378 1692 1365T1647 1345T1594 1333T1549 1317L1538 1284L1490 1239Q1488 1237 1487 1231T1485 1220Q1486 1215 1489 1207T1496 1191T1504 1175T1511 1161V1156Q1511 1149 1509 1135T1504
1106T1499 1079T1497 1064Q1495 1062 1495 1052Q1495 1047 1495 1042T1497 1035V974Q1497 953 1494 933T1480 898V775Q1480 762 1480 746T1477 715T1471 684T1459 659V631Q1459 591 1455 553T1447 474Q1445 453 1439 435T1433 396Q1433 375 1433 350T1434 299T1439
247T1447 202Q1453 182 1457 167T1463 135T1467 102T1469 62V12Q1459 -5 1442 -5Q1424 -5 1403 8T1359 43T1314 90T1269 143T1227 192T1191 230Q1189 234 1186 248T1177 266Q1161 283 1143 306T1108 346Q1087 362 1070 379T1038 414T1009 452T978 491Q972 499 964
504T948 514T933 524T923 538Q888 586 853 624T772 692Q764 696 760 702T751 715T740 728T724 740Q722 743 716 753T701 776T686 800T677 815L665 825Q660 846 653 860T635 887T611 912T580 943L571 957Q566 972 556 982T534 1001T510 1018T488 1038Q481 1046 478
1053T472 1068T463 1079T443 1086Q437 1086 425 1078T412 1062L417 1033Q417 1022 412 1006T407 974L417 943L407 915Q407 901 411 880T424 848Q429 832 431 815T433 778Q433 756 431 737T424 699Q431 690 431 683Q431 666 428 652T422 626T415 601T412 576V543Q412
530 412 515T414 486T418 459T424 441Q419 428 416 419T411 402T408 386T407 367Q407 337 413 306T431 245T463 189T509 144Q517 139 526 137T545 133T564 127T580 114Q596 114 614 113T648 108T679 100T701 86Q709 68 714 53T720 12Q703 -10 686 -22T639 -35H620L580
-14Q550 -9 507 -6T423 -3H355Q344 -3 333 -4T308 -10H148Q145 0 137 2T119 5T104 8T97 19Q97 42 107 56T134 80T171 93T210 102H217Z" />
<glyph unicode="O" glyph-name="O" horiz-adv-x="1695" d="M98 502Q98 515 105 527T112 555L86 666Q86 695 89 731T98 794Q106 819 111 847T119 904T123 958T124 1002Q135 1016 146 1026T166 1045T181 1067T190 1099L245 1156L271 1168Q277 1171 285 1182T301
1207T318 1235T335 1256Q392 1297 447 1332T569 1400Q574 1401 579 1403Q584 1404 588 1405T596 1406Q612 1408 622 1413T641 1424T660 1434T686 1439L735 1431L750 1439L787 1450Q832 1456 874 1457T961 1458Q975 1458 1007 1452T1075 1438T1141 1420T1181 1406Q1210
1386 1233 1358T1283 1310Q1299 1298 1314 1290T1345 1275T1375 1259T1404 1237Q1409 1235 1416 1229T1430 1216T1442 1202T1451 1192L1458 1161Q1460 1149 1468 1139T1487 1118T1507 1097T1520 1076Q1528 1064 1538 1046T1558 1006T1575 965T1584 929V870Q1588
853 1591 843T1602 822Q1606 811 1609 801T1612 773Q1612 771 1611 766T1610 755T1608 744T1607 735L1617 709L1612 666Q1614 661 1614 654T1614 638Q1614 606 1610 582T1602 550Q1591 518 1577 491T1548 438T1519 383T1491 322Q1485 316 1479 313T1467 308T1455
302T1444 291Q1441 286 1438 278T1430 261T1420 242T1409 227L1389 215Q1381 215 1374 208T1366 194Q1359 185 1346 170T1318 138T1289 107T1266 86Q1259 82 1254 79Q1249 77 1245 75T1238 73L1127 35Q1120 27 1117 23T1111 16T1104 13T1091 9L1025 3L954 -28Q945
-30 936 -31Q928 -32 920 -32T903 -33Q892 -33 877 -31T844 -25T811 -19T781 -12Q761 -7 739 -6T695 -5Q657 -5 622 -3T553 14L538 35Q527 38 512 39T482 44T453 52T432 67Q417 85 408 97T390 119T368 137T330 156L299 163Q289 168 277 183T253 218T229 261T206
305T188 344T176 370Q167 394 154 404T128 424T107 450T98 502ZM309 725Q309 705 316 688T334 655T352 623T363 588Q365 585 365 576L363 528Q363 519 365 508T375 486Q381 475 388 471T401 462T413 451T422 432L423 422Q423 415 423 409T422 391Q422 374 427 363Q431
352 442 349T460 337Q475 298 490 273T531 225Q566 197 602 171T678 125T760 92T851 80Q864 80 873 82T890 87T908 93T930 99Q958 103 993 108T1058 114Q1079 130 1105 144T1156 173T1203 208T1238 253L1290 358Q1304 368 1310 384T1321 417T1329 451T1345 481L1366
619Q1366 635 1364 649T1361 683L1373 716Q1373 732 1366 754T1348 800T1326 846T1307 884L1297 901L1302 929Q1302 944 1297 955T1286 976T1274 995T1266 1017L1257 1066Q1248 1094 1220 1131T1157 1205T1086 1268T1025 1303Q1010 1308 984 1309T942 1310L916
1342Q909 1345 892 1350T855 1361T816 1370T787 1374Q767 1374 736 1370T671 1358T610 1338T569 1310L564 1294Q556 1288 548 1285T532 1277T519 1266T510 1246Q487 1240 479 1235T467 1224T459 1211T441 1192Q402 1166 378 1125T342 1036T325 938T320 844L325
773Q325 764 317 752T309 725Z" />
<glyph unicode="P" glyph-name="P" horiz-adv-x="1184" d="M69 62Q69 68 73 74T82 87T93 98T102 106H128Q150 106 171 107T212 114T249 131T282 164L313 202Q318 207 319 211T320 227L313 358Q313 390 323 419T334 476Q334 507 324 540T313 607Q313 615 315 620T320
631T325 643T328 657L318 728L328 823V862L313 889Q311 914 308 937Q306 957 304 977T301 1010L315 1057Q315 1071 309 1103T293 1169T272 1231T249 1265Q232 1270 202 1274T143 1288T91 1314T69 1358Q69 1367 74 1367Q90 1367 102 1370T124 1377T145 1384T169
1387L249 1377L410 1393L443 1382L495 1393Q524 1397 552 1398T609 1400Q636 1400 663 1399T716 1393Q737 1382 758 1381T802 1379Q826 1379 849 1377T894 1370Q912 1367 941 1354T1000 1322T1056 1281T1093 1239Q1102 1216 1109 1189T1123 1135T1132 1080T1136
1028Q1136 1016 1136 996T1133 955T1126 916T1116 889L1086 851L1079 813Q1074 801 1057 781T1018 739T976 699T943 676Q934 671 921 665T894 651T868 639T847 631L777 626L733 612Q721 612 704 615T672 626T645 641T633 661Q633 677 654 685L770 709Q771 714 777
717T789 723Q824 741 854 770T906 836T940 912T953 995Q951 1003 948 1009T943 1021Q943 1022 942 1023T941 1029Q937 1057 932 1094T917 1159Q913 1169 896 1186T856 1224T810 1263T770 1297L681 1318H602Q593 1313 577 1309T545 1299T517 1283T505 1254V1138Q512
1129 513 1124T514 1107L505 1069Q505 1067 509 1057T514 1041V1024L496 972L519 856Q519 847 519 842T514 825V671Q518 662 518 655T519 638L505 580Q505 543 515 507T527 432Q528 404 528 375T529 316T533 258T545 202Q546 195 567 180T616 150T667 123T699 111H730Q741
111 746 111T758 106Q758 105 762 101T773 92T785 81T797 73Q799 68 800 65T802 57V54Q793 34 775 23T734 7T689 1T647 0L571 14Q560 14 550 10T527 5L444 28H432Q424 28 422 26Q379 21 336 11T244 0Q224 0 195 1T137 8T89 26T69 62Z" />
<glyph unicode="Q" glyph-name="Q" horiz-adv-x="1678" d="M77 753Q77 781 89 806T106 858Q106 860 107 870T109 891T112 913T115 926Q117 929 123 940T135 964T148 988T157 1002Q157 1003 158 1007T160 1016T163 1025T164 1031Q195 1099 246 1153T356 1253Q358
1254 365 1258T381 1266T396 1275T404 1282Q411 1284 422 1291T435 1301Q436 1302 440 1306T448 1316T458 1325T465 1330Q466 1331 472 1332T487 1335T503 1338T513 1339Q514 1340 519 1343T530 1349T543 1355T551 1358H553H560Q571 1361 582 1368T604 1381T627
1393T651 1398H657Q658 1396 665 1392T676 1387Q680 1389 690 1395T705 1406Q737 1411 769 1414T833 1417Q865 1417 898 1414T965 1406Q966 1406 976 1404T1001 1399T1029 1393T1051 1387Q1053 1387 1060 1383T1070 1379Q1071 1377 1076 1371T1088 1358T1101 1346T1110
1339Q1114 1337 1123 1336T1144 1333T1167 1331T1188 1330H1196Q1197 1327 1200 1323T1208 1314T1217 1306T1224 1301Q1225 1300 1229 1299T1239 1296T1248 1293T1253 1291Q1255 1291 1263 1282T1272 1272Q1282 1265 1293 1261T1315 1252T1338 1244T1359 1233Q1361
1233 1368 1225T1380 1214Q1422 1166 1457 1121T1523 1022Q1533 1005 1544 977T1566 918T1582 858T1591 810V734Q1591 729 1595 718T1601 704V699Q1601 674 1597 653T1587 613T1574 573T1561 531Q1557 513 1556 500T1554 475T1548 451T1534 422Q1533 421 1529 417T1519
409T1510 400T1504 394Q1503 393 1499 386T1490 371T1481 355T1475 346Q1461 324 1444 305T1408 269T1370 235T1331 201Q1324 196 1309 183T1276 156T1244 130T1224 114Q1216 108 1199 102T1163 89T1132 75T1118 57Q1118 46 1122 42T1138 28Q1142 26 1148 21T1160
12T1171 3T1177 -2Q1178 -2 1185 -3T1200 -5T1215 -8T1224 -10Q1227 -12 1238 -17T1263 -30T1287 -42T1302 -48Q1331 -62 1359 -66T1418 -78Q1420 -78 1427 -82T1437 -88Q1444 -91 1457 -95T1484 -104T1509 -112T1523 -116Q1527 -117 1542 -120T1576 -126T1609
-131T1629 -135Q1633 -136 1651 -142T1693 -156T1739 -171T1774 -183Q1792 -190 1809 -195T1844 -206T1877 -221T1909 -242Q1919 -244 1945 -249T2001 -260T2056 -271T2091 -280Q2095 -280 2106 -284T2120 -291Q2154 -304 2189 -310T2260 -321T2331 -328T2402 -337Q2404
-339 2415 -343T2428 -348H2444H2459Q2461 -348 2472 -344T2489 -337H2584L2594 -329H2738Q2740 -329 2747 -325T2759 -318Q2776 -308 2793 -302T2827 -290T2863 -281T2902 -270Q2921 -266 2937 -255T2970 -232T3004 -211T3042 -202Q3058 -202 3068 -207T3085 -222T3093
-243T3096 -268Q3096 -287 3089 -303T3071 -334T3046 -362T3018 -386Q2976 -420 2934 -441T2845 -483Q2832 -489 2818 -491T2791 -496T2764 -502T2738 -512Q2735 -514 2726 -519T2705 -530T2684 -541T2670 -550Q2595 -552 2523 -560T2376 -569H2293Q2270 -559 2248
-558T2198 -550Q2196 -550 2189 -545T2181 -540H2137H2120Q2115 -539 2094 -534T2047 -523T1996 -511T1958 -502Q1956 -502 1948 -498T1937 -491H1928Q1920 -491 1910 -492T1888 -493Q1877 -493 1865 -491T1842 -483Q1840 -482 1836 -478T1828 -468T1819 -459T1812
-453H1805H1781H1774Q1772 -453 1763 -451T1742 -445T1720 -438T1707 -434Q1705 -434 1697 -433T1678 -430T1660 -427T1648 -424Q1646 -424 1639 -416T1629 -405Q1626 -404 1615 -402T1591 -396T1567 -390T1553 -386Q1551 -385 1543 -381T1524 -372T1506 -363T1494
-358Q1493 -357 1488 -356T1476 -353T1463 -350T1456 -348Q1451 -346 1440 -343T1426 -337Q1424 -337 1413 -331T1389 -319T1365 -306T1350 -299H1338H1300H1291Q1289 -299 1282 -294T1267 -281T1253 -269T1245 -261Q1229 -250 1211 -250T1177 -242Q1148 -229 1125
-212T1070 -183Q1068 -183 1060 -182T1043 -179T1025 -176T1013 -175Q1008 -173 997 -170T984 -164Q983 -164 981 -160T975 -150T969 -141T965 -135H944H935Q933 -135 926 -131T916 -126Q912 -124 904 -121T886 -115T869 -110T859 -107H840Q838 -107 832 -103T820
-93T808 -84T802 -78Q798 -76 786 -73T772 -69Q769 -68 761 -64T744 -55T727 -46T714 -40Q712 -39 708 -36T700 -30T691 -24T686 -21Q684 -20 679 -19T667 -16T655 -13T646 -10Q643 -10 633 -9T612 -7T591 -4T579 -2Q570 2 550 11T509 32T469 52T446 66Q442 69
430 80T406 105T382 130T368 144Q366 144 362 147T353 153T344 159T337 163Q328 170 311 184T277 212T246 237T231 249Q230 250 227 256T219 269T210 285T202 298Q199 305 192 319T178 349T164 377T157 394Q152 404 144 423T128 463T114 499T106 519V538V586Q106
589 101 596T96 605Q95 612 93 629T87 667T81 706T77 734V753ZM288 718V711Q291 709 294 698T298 685Q312 631 320 577T349 471Q378 396 415 330T503 201Q504 199 507 196T513 192Q515 190 526 187T541 182Q544 180 555 170T579 149T604 127T619 114Q620 113 626
112T641 110T657 107T667 106Q668 105 676 101T694 91T712 82T724 76Q727 75 740 74T767 71T795 68T811 66Q812 66 817 65T829 62T841 59T849 57Q849 57 853 57T862 56T872 56T880 55Q886 55 896 56T907 57Q908 57 912 59T920 65T929 72T935 76Q949 81 969 82T1003
95Q1005 97 1011 104T1026 120T1041 135T1051 144Q1053 144 1061 145T1080 148T1098 151T1110 154Q1111 155 1116 160T1128 173T1140 185T1148 192Q1152 195 1159 201T1174 214T1188 224T1196 230Q1197 231 1202 233T1214 236T1227 239T1234 240Q1237 241 1241
245T1250 254T1258 263T1264 268Q1265 270 1266 276T1268 288T1271 300T1272 308Q1274 313 1277 323T1283 336Q1284 338 1287 342T1293 351T1299 360T1302 365Q1303 368 1304 380T1307 405T1310 430T1312 445Q1312 446 1315 452T1321 467T1328 481T1331 490Q1332
493 1333 500T1336 515T1339 529T1340 538V573V656Q1342 683 1351 713T1361 772Q1360 772 1360 773V775Q1359 776 1359 778Q1359 783 1351 795T1340 810Q1339 813 1337 824T1331 848T1325 872T1321 887Q1320 888 1318 893T1312 905T1306 918T1302 926Q1301 928
1300 937T1298 958T1294 980T1291 993Q1291 995 1284 1003T1269 1020T1253 1038T1245 1050Q1234 1067 1228 1088T1215 1130T1201 1171T1177 1204Q1176 1205 1170 1207T1158 1210T1145 1213T1138 1214Q1137 1215 1133 1219T1124 1228T1115 1237T1110 1244Q1108 1245
1103 1247T1090 1253T1077 1259T1070 1263Q1068 1264 1063 1268T1051 1278T1039 1287T1032 1291Q998 1302 960 1305T888 1320Q868 1327 856 1328T830 1330H811H772Q768 1330 757 1325T743 1320H707H695Q691 1319 677 1312T646 1297T616 1281T599 1272Q567 1257
540 1240T488 1203T442 1160T397 1109Q384 1093 383 1075T378 1041Q377 1039 373 1030T363 1012T354 994T349 983Q347 979 344 964T338 930T333 897T330 877Q319 836 310 799T288 723V718Z" />
<glyph unicode="R" glyph-name="R" horiz-adv-x="1544" d="M1171 36Q1110 86 1064 149T986 282L972 318Q967 328 958 338T940 359T921 379T908 398L886 434L811 516Q809 545 784 572T724 622T653 657T592 670Q582 670 567 667T538 658T513 641T502 618L509 580Q509
566 506 560T502 545Q502 529 503 520T509 493L500 334L502 313Q503 296 503 280T503 247Q503 230 503 216T502 185Q502 176 510 164T529 147L576 116Q590 106 612 102T658 96T707 93T751 86T783 70T796 40Q796 25 785 13T758 -9T725 -23T696 -28Q680 -28 667 -25T640
-17T612 -8T581 0Q545 7 510 12T429 31Q418 31 406 28T377 24L306 31Q295 31 283 21T256 10L93 16Q83 26 83 36Q83 60 106 74T160 97T219 112T258 126Q269 142 269 162T273 197Q278 199 283 205T291 211Q300 233 302 263T305 322V365Q305 386 301 401T296 434L317
614L301 711L296 734V739Q296 742 296 749T297 765T299 781T301 792Q313 797 315 800T317 810L305 872L317 926Q317 927 319 937T322 951L317 977V1007L322 1071L305 1223V1244Q283 1271 262 1290T217 1322T166 1346T102 1365Q88 1368 88 1382Q88 1396 106 1406T149
1422T196 1431T228 1434L287 1429L350 1434L438 1415Q465 1415 491 1422T548 1429L631 1420L716 1429Q766 1429 813 1420T908 1396Q931 1388 958 1384T1007 1365L1029 1349Q1069 1325 1101 1304T1156 1256T1192 1194T1209 1105Q1211 1079 1216 1058T1221 1010Q1221
999 1219 993T1212 982T1204 972T1195 958Q1190 948 1188 935T1184 908T1179 882T1171 862Q1154 838 1131 823T1086 787Q1077 772 1058 763T1020 744T987 722T972 687Q972 676 976 671T985 662T996 654T1007 642Q1008 639 1016 627T1033 602T1051 577T1061 564Q1098
516 1127 466T1195 372Q1218 346 1240 320T1292 277Q1300 273 1306 262T1317 238T1328 211T1341 190Q1379 163 1411 142T1479 95Q1495 84 1516 76T1557 58T1590 34T1604 -3Q1604 -24 1587 -30T1548 -36H1401Q1370 -22 1340 -22T1272 -17Q1264 -16 1252 -11T1226
2T1199 18T1176 33L1171 36ZM488 810Q488 787 496 770T520 742T554 724T595 718H631Q634 734 660 745T719 765T783 780T829 792Q849 801 869 819T905 856L938 919Q953 945 962 973T972 1033Q972 1041 969 1048T961 1063T954 1079T950 1099Q956 1126 957 1132T958
1142V1152Q958 1156 949 1164T938 1176Q914 1220 883 1249T815 1296T734 1321T640 1329Q636 1329 623 1327T595 1323T568 1318T552 1313Q550 1311 547 1306T540 1294T533 1283T529 1275V1247Q529 1193 519 1142T495 1036L481 1016L502 990Q503 985 505 970T509
945V931Q507 931 505 927T502 919Q502 917 504 909T509 900L488 810Z" />
<glyph unicode="S" glyph-name="S" horiz-adv-x="1050" d="M349 10Q323 19 294 23T236 32T179 44T131 65T98 105T85 170V195L104 386Q108 394 111 398T124 403Q146 403 156 384Q194 330 222 279T284 171Q288 161 305 152T347 133T399 115T452 101T498 92T529 88H548Q564
88 566 90Q569 92 576 97T592 108T608 119T619 126Q623 130 633 134T647 138L688 149Q692 149 706 170T735 218Q753 248 773 287Q773 289 774 298T775 317T777 337T778 351V367Q778 378 778 386T776 403T772 422T765 446L763 452Q755 463 743 472T720 493Q708 510
703 519T693 534T679 545T650 559Q649 559 639 562T624 569Q610 577 597 580T571 585T543 588T514 595Q500 606 491 617T465 637Q462 637 455 638T439 642T423 645T413 647L361 701Q347 711 336 715T314 724T295 733T273 749Q264 757 260 765T252 781T247 797T239
813Q237 821 231 832T220 849Q197 876 183 895T162 934T152 975T149 1033Q149 1075 159 1120T188 1209T234 1290T297 1355Q307 1365 319 1369T345 1376T373 1378T400 1382Q413 1385 424 1391T447 1403T471 1415T498 1420Q541 1420 579 1415T656 1401Q682 1395 703
1385T752 1375Q771 1375 786 1386T817 1410T848 1435T886 1446Q905 1446 911 1428T917 1394L898 1329L906 1211V1185Q906 1158 905 1140T896 1093Q894 1088 890 1084T882 1080Q882 1078 875 1078Q870 1078 860 1091T835 1124T804 1168T772 1214T742 1255T716 1280Q696
1293 672 1301T622 1314T570 1321T522 1323Q489 1323 465 1317T423 1298T391 1265T365 1216Q355 1194 349 1181T338 1157T331 1134T329 1100Q329 1047 347 1008T395 941T465 894T550 862L560 855Q584 840 602 830T638 811T673 794T716 775L832 701Q834 700 836
698T842 693Q846 690 849 687L867 637Q871 630 874 622T882 609Q885 607 892 599T906 582T919 564T925 552Q928 546 932 535T941 511T949 488T953 472V325Q953 324 949 312T939 292Q936 291 934 287Q933 285 932 282Q931 279 928 269T920 247T912 225T906 213Q903
204 896 194T879 175T862 159T849 149Q840 137 839 123T827 102Q788 88 763 71T716 38T668 11T605 0H593Q566 2 558 2T545 3L349 10Z" />
<glyph unicode="T" glyph-name="T" horiz-adv-x="1495" d="M354 43Q354 71 371 85T414 100L480 92Q505 92 530 102T578 128T617 167T639 213V266Q644 310 653 349T662 431L648 474V704Q646 716 646 727T645 754V936Q649 947 650 962T651 996Q651 1015 650 1028T648
1054L655 1064V1180Q647 1197 644 1210T636 1233T622 1248T591 1253L536 1239Q510 1239 485 1247T430 1266Q381 1263 348 1260T288 1249T235 1231T174 1201Q161 1184 150 1160T127 1114T98 1075T60 1059Q54 1059 46 1059T32 1060T20 1065T15 1073Q15 1090 17 1102T24
1126T31 1148T37 1175V1239L53 1277Q56 1284 58 1298T63 1329T69 1361T75 1387Q78 1402 82 1418T93 1447T110 1470T138 1479Q157 1479 179 1464T223 1430T267 1392T307 1368Q316 1366 338 1363T386 1355T434 1349T465 1346Q480 1346 492 1348T515 1354T538 1360T568
1363H593Q615 1363 619 1362Q623 1360 634 1354T648 1346H653Q670 1346 685 1349T717 1357T749 1364T783 1368Q804 1368 822 1362T856 1356H887Q928 1356 967 1358T1048 1364T1133 1370T1226 1374Q1240 1374 1250 1371T1271 1367Q1284 1367 1292 1373T1308 1388T1321
1405T1337 1419Q1350 1424 1361 1431T1383 1446T1404 1459T1428 1464Q1439 1464 1447 1452T1463 1431Q1463 1429 1464 1428Q1464 1427 1465 1427Q1463 1421 1463 1412T1463 1391V1292Q1463 1279 1463 1271T1465 1258L1473 1150Q1473 1147 1473 1139T1472 1123T1471
1107T1470 1097Q1463 1085 1444 1085Q1426 1085 1412 1098T1386 1130T1362 1165T1337 1192Q1317 1208 1299 1219T1264 1251L1228 1247L992 1266L958 1258L908 1266H890L875 1251Q875 1252 874 1241T872 1214T869 1182T868 1156L875 1052V853L861 778L875 656Q875
645 874 639T868 621Q868 609 868 582T869 521Q869 489 869 464T868 427L861 377Q861 365 862 344T865 296T871 243T882 192T898 153T921 133L1051 100H1074L1101 106Q1113 106 1121 100T1135 83T1143 63T1146 43Q1146 26 1139 17T1121 2T1097 -4T1070 -5Q1059
-5 1050 -2T1030 9Q1021 14 1009 18T985 22L935 9Q915 9 887 16T830 28Q829 28 821 27T803 23T785 19T774 17H684Q661 16 643 8T603 0Q596 2 583 5T568 9Q554 9 543 6T517 -2Q498 -6 481 -10T442 -14H427Q413 -14 401 -12T371 -5Q371 -3 366 14T354 43Z" />
<glyph unicode="U" glyph-name="U" horiz-adv-x="1729" d="M393 227Q373 279 354 332T315 434Q315 436 314 439T310 445Q307 449 305 453V550L296 569V642Q293 649 288 655T276 667T266 680T261 699Q260 710 260 720T260 739Q260 750 260 757T261 773V912L256
988L261 1007L256 1052V1071L261 1140Q259 1145 258 1149Q256 1159 256 1163Q254 1167 250 1177T239 1201T224 1226T208 1246Q200 1252 187 1258T157 1272T123 1291T90 1317Q81 1327 71 1333T53 1345T39 1355T33 1368Q33 1382 42 1392T64 1408T94 1416T123 1419L156
1429L208 1424H227Q259 1424 288 1420T337 1410L393 1412Q404 1412 417 1413T445 1417Q459 1419 471 1422T495 1426Q516 1426 531 1422T559 1417Q584 1417 606 1423T658 1429L703 1426Q709 1423 719 1418T738 1408T754 1398T761 1386V1342Q761 1333 742 1323T698
1305T650 1289T618 1278Q595 1264 566 1244T516 1199V1099L507 1019Q507 1015 508 1009T510 991Q510 973 500 960V832L507 806Q507 804 509 789T515 754T520 713T523 678Q520 673 518 667T516 647Q516 643 518 640T531 633V574Q531 561 531 551T533 529L549 481L606
365Q618 345 629 325T653 285T680 249T715 220L761 209L786 183Q815 163 850 160T922 157Q941 157 955 157T982 158T1011 163T1049 171Q1056 171 1061 174T1072 181T1082 189T1097 195Q1123 200 1138 206T1164 222T1189 243T1223 273L1249 285Q1250 285 1255 298T1268
331T1284 375T1301 422T1315 462T1325 486Q1331 498 1336 521T1345 571T1354 624T1362 671Q1362 689 1359 714T1356 761L1351 784L1372 822Q1372 826 1367 837T1356 853V919L1370 1033L1358 1128Q1358 1132 1357 1140T1356 1163Q1354 1167 1346 1180T1330 1208L1308
1246Q1305 1248 1297 1252T1281 1261T1265 1269T1254 1273Q1245 1277 1234 1282T1210 1293T1187 1303T1166 1310Q1158 1313 1142 1315T1110 1321T1081 1332T1069 1353V1368L1102 1375L1138 1394Q1156 1398 1174 1399T1212 1401T1249 1405T1282 1417H1325Q1360 1417
1391 1415T1462 1412H1519Q1557 1432 1599 1441T1687 1450Q1691 1450 1699 1448T1717 1442T1732 1432T1739 1417V1358L1730 1353Q1712 1342 1692 1340T1651 1336Q1628 1333 1606 1327T1559 1317Q1529 1295 1516 1264T1496 1198T1484 1129T1467 1066V832L1453 794V671Q1449
663 1449 656T1448 635Q1448 623 1450 616T1453 593L1440 557Q1435 537 1428 519T1417 479L1396 394Q1388 368 1378 346T1355 301Q1350 290 1343 283T1329 268T1315 253T1305 234Q1292 204 1251 173Q1231 156 1209 138T1166 104Q1158 100 1151 94T1136 81T1120
69T1102 62H1069L1023 40Q1011 36 996 36T965 35H922L856 29L805 35L728 29Q727 31 719 34T699 42Q686 48 671 53T642 62L611 69Q586 77 566 81T543 88Q536 92 531 99T522 114T512 129T498 140Q467 154 440 174T393 227Z" />
<glyph unicode="V" glyph-name="V" horiz-adv-x="1343" d="M378 697L377 704Q363 741 350 771T327 839Q324 851 317 860T303 879T290 898T282 919Q271 970 259 1017T228 1112L204 1163L190 1213Q179 1232 163 1246T129 1272T97 1297T74 1323Q63 1323 50 1324T24
1331T3 1344T-6 1367Q-6 1382 3 1390T24 1398L83 1391Q88 1391 93 1396T107 1401Q115 1401 121 1408H190L304 1398Q338 1398 366 1406T427 1419Q447 1420 461 1421T487 1422Q499 1422 514 1424T548 1431Q551 1431 565 1430T594 1424T621 1413T633 1394L628 1339Q628
1333 620 1327T600 1314T577 1305T560 1301L527 1308Q507 1308 495 1307T461 1301Q452 1297 446 1289T439 1270Q439 1247 448 1227T461 1185L467 1104Q469 1087 474 1071T487 1038T501 1006T512 974V924Q512 920 520 910T531 896Q542 876 549 851T562 798T574 745T590
697Q600 670 616 640T640 583L645 526Q651 516 657 497T671 460T687 427T707 413Q724 413 734 422T756 443L764 453Q769 464 769 472Q768 483 768 490T768 502Q768 509 769 510L802 564Q807 577 813 595T826 632T839 670T851 706Q857 719 862 737T873 775T887 811T906
839Q903 841 903 853V901Q903 906 903 910T906 919Q906 921 907 928T911 943T917 960T922 974L934 998V1047Q939 1051 947 1058T955 1071Q972 1113 983 1167T994 1272V1291Q985 1305 974 1317T942 1334Q927 1337 903 1337Q887 1337 870 1338T839 1345T816 1361T807
1391Q807 1406 812 1415T828 1430T851 1437T878 1439L1055 1417Q1099 1417 1143 1438Q1166 1444 1186 1450T1224 1457Q1250 1445 1273 1442T1323 1438H1344Q1350 1438 1355 1438T1368 1439Q1373 1437 1377 1434Q1381 1432 1384 1430T1387 1426Q1391 1418 1393 1409T1396
1391Q1396 1369 1387 1355Q1383 1344 1373 1335T1358 1323H1301L1276 1329Q1272 1329 1265 1328T1248 1324T1231 1321T1218 1318Q1195 1299 1180 1275T1154 1225T1137 1171T1126 1116Q1126 1109 1121 1104L1091 1062Q1081 1052 1081 1035Q1081 1028 1081 1021T1079
1005Q1076 998 1071 994T1060 985T1049 977T1041 967L1043 931Q1043 905 1038 882T1013 846L991 759Q970 739 953 708T922 647Q917 635 916 624T914 601T908 579T891 555Q891 536 887 519T876 486T860 452T842 415Q833 393 824 366T804 318L788 296Q780 288 778
280Q778 274 779 266T780 249Q780 236 779 229T778 218Q778 215 776 209T772 195T767 183T764 175L756 159Q753 150 749 129T740 84T729 39T719 10Q708 -25 689 -41T633 -57Q623 -57 615 -48T601 -25T590 1T583 21Q580 28 575 51T564 101T553 153T543 190Q532 240
517 284T493 377Q491 387 484 393T468 404T452 417T441 436L427 526Q425 531 421 543T413 569T406 593T403 607Q398 628 387 646T375 685L378 697Z" />
<glyph unicode="W" glyph-name="W" horiz-adv-x="1957" d="M928 1009L878 1150L857 1189Q846 1218 842 1247T826 1304Q820 1316 803 1319T766 1326T731 1337T716 1365Q716 1386 728 1393T757 1401Q778 1401 797 1400T837 1394Q851 1392 866 1391T899 1389H930Q956
1389 961 1391Q978 1398 995 1399T1030 1401H1051Q1077 1397 1088 1397T1103 1396Q1149 1407 1181 1413T1248 1420Q1251 1420 1259 1419T1276 1416T1290 1410T1297 1401Q1303 1392 1307 1383T1312 1365Q1312 1357 1308 1348T1297 1330Q1290 1325 1282 1320T1269
1315L1228 1327Q1207 1327 1184 1321T1140 1303T1107 1273T1094 1228V1213Q1099 1193 1102 1176T1107 1144T1110 1111T1113 1074L1115 1055Q1115 1044 1121 1028T1134 995T1150 963T1162 938Q1170 913 1176 886T1189 832T1203 777T1221 725Q1221 695 1221 673T1226
640Q1226 638 1229 633T1237 622T1244 611T1248 604Q1248 602 1251 593T1258 574T1265 555T1269 545Q1271 538 1273 525T1279 498T1289 474T1307 464Q1332 464 1346 475T1368 504T1383 539T1397 571L1423 604Q1425 606 1426 612T1428 625T1429 639T1430 649Q1432
653 1440 659T1451 668Q1457 676 1460 694T1469 735T1482 779T1503 815Q1507 819 1511 826T1515 836Q1516 840 1519 852T1525 877T1530 902T1532 917L1544 931Q1545 931 1550 942T1561 968T1574 1000T1584 1028Q1596 1053 1615 1075T1643 1124L1655 1197Q1664 1217
1668 1225T1672 1244Q1672 1255 1671 1259T1669 1268Q1665 1286 1652 1291T1636 1297L1587 1310Q1572 1310 1561 1310T1538 1310T1514 1312T1485 1315Q1480 1323 1474 1335T1468 1358Q1468 1370 1479 1381T1505 1400T1535 1414T1558 1420Q1596 1420 1640 1417T1722
1396L1809 1415Q1820 1415 1830 1406T1849 1396Q1853 1396 1858 1400T1868 1406Q1897 1420 1930 1431T1996 1443Q2007 1443 2014 1436T2022 1415Q2022 1407 2019 1397T2009 1376T1994 1360T1977 1353Q1966 1350 1956 1343T1937 1328T1919 1316T1899 1310Q1895 1310
1892 1310T1887 1311Q1886 1311 1880 1309T1864 1302T1846 1291T1831 1277Q1814 1254 1804 1241T1786 1208Q1760 1158 1740 1111T1693 1009Q1680 983 1676 955T1662 900Q1653 874 1634 848T1603 794Q1595 777 1589 761T1576 729T1562 697T1544 661Q1535 640 1520
617T1497 571Q1488 549 1483 526T1473 479T1462 433T1446 391Q1444 388 1437 379T1420 358T1404 338T1397 327L1392 268Q1383 250 1369 240T1345 209Q1341 193 1339 169T1335 119T1327 71T1312 36Q1308 30 1300 22T1284 5T1270 -8T1262 -14Q1258 -18 1252 -19T1240
-21Q1221 -21 1203 -14Q1193 -12 1185 3T1169 39T1156 86T1145 133T1137 173T1132 197L1126 289Q1126 292 1123 303T1115 327T1107 351T1103 363Q1092 402 1089 439T1079 512Q1079 516 1074 522T1062 535Q1057 544 1049 556T1037 571Q1037 573 1035 586T1030 604Q1030
605 1029 613T1025 623H1010Q993 623 980 608T957 573T937 533T920 502Q918 499 912 494T900 481T887 465T878 448L871 396Q871 394 868 389T860 377T853 366T849 358Q845 341 843 323T830 289Q828 283 825 281T819 277T812 272T807 261Q806 254 803 242T796 218T789
196T786 183V128Q786 126 786 123T785 118Q780 100 772 72T752 18T724 -26T686 -45Q673 -45 657 -34T626 -6T598 29T581 61Q573 81 569 102T563 144T557 187T549 230Q546 242 540 252T526 272T513 292T504 313Q496 342 486 368T464 420T440 471T416 526Q416 531
415 537T413 545V597Q411 606 406 617T393 639T379 662T368 682Q368 683 366 689T361 699Q353 731 344 761T324 821T306 881T292 945Q281 955 276 967T267 993T261 1021T254 1048Q240 1081 228 1113T201 1175T168 1233T124 1289Q113 1297 98 1299T70 1304T46 1313T36
1337L34 1363Q34 1372 44 1382Q52 1388 65 1391T92 1397T120 1400T145 1401Q151 1400 159 1398T169 1396H171Q211 1396 254 1403T337 1415L416 1406L477 1415L586 1401Q606 1395 609 1381T613 1349V1330L601 1315H504Q491 1307 479 1301T456 1287T440 1267T434
1235Q434 1226 438 1219T447 1205T457 1191T465 1176Q471 1153 474 1132T480 1088T488 1043T504 996Q506 990 514 974T530 941T546 908T553 886L567 778L613 713Q614 711 615 705T617 691T619 677T620 668Q625 634 634 599T658 533L677 497Q679 493 683 485T693
468T702 452T709 443Q714 436 717 425T723 403T732 385T748 377Q759 377 769 383T793 410Q795 414 803 423T820 444T838 466T849 481Q849 500 854 513T867 538T883 562T897 590L937 713Q941 728 947 743T958 773T968 804T972 839Q972 861 965 881T950 920T935 960T928
1003V1009Z" />
<glyph unicode="X" glyph-name="X" horiz-adv-x="1655" d="M36 29Q36 53 51 68T90 94T145 110T206 120T263 130T308 142Q325 149 348 166T394 206T437 250T467 291Q467 291 468 296T470 306T472 316T474 322Q480 340 490 353T513 378T539 400T566 424Q575 434
581 449T594 478T610 505T635 521Q640 521 645 527T655 535L668 557Q673 567 686 581T714 607T746 630T773 644Q778 645 778 656Q778 667 769 683T745 716T715 749T687 777Q661 804 661 811Q660 813 659 819T655 831T651 843T649 849Q647 852 641 857T627 867T614
876T607 882L566 951L533 977Q516 993 507 1013T481 1050L424 1105Q421 1127 417 1137T406 1152T391 1162T372 1178L356 1209Q333 1235 310 1252T249 1270H100Q89 1270 82 1276T71 1290T64 1309T62 1327Q62 1351 73 1365T102 1385T140 1394T180 1396Q195 1396 203
1395T223 1382H372Q383 1377 391 1376T415 1375L521 1382Q529 1382 550 1381T599 1379T657 1375T713 1371T754 1365T771 1358Q773 1351 775 1347T777 1339Q777 1334 775 1326T771 1313Q767 1299 748 1292T706 1277T665 1257T647 1220Q647 1199 655 1181T674 1145T699
1113T725 1081Q726 1081 728 1075T730 1067Q746 1027 771 994T820 929Q820 922 823 918Q825 915 827 913Q827 909 828 897T834 882Q838 877 847 872T868 862T889 852T905 843L918 837Q932 842 950 864T987 918T1027 988T1065 1062T1099 1129T1124 1178Q1132 1194
1142 1202T1152 1228Q1152 1232 1149 1243T1141 1267T1132 1289T1124 1299Q1110 1297 1100 1293T1076 1289Q1063 1289 1049 1293T1019 1299Q1011 1304 1005 1307T993 1315T985 1326T982 1344Q982 1355 984 1366T1001 1377Q1027 1381 1063 1384T1145 1387Q1195 1387
1252 1384T1372 1377Q1415 1381 1457 1386T1538 1391Q1560 1391 1572 1383T1584 1348Q1584 1334 1574 1325T1547 1311T1511 1302T1473 1296T1441 1290T1420 1280L1367 1228L1332 1211Q1320 1202 1306 1187T1279 1154T1255 1120T1238 1090Q1238 1086 1237 1075T1232
1062Q1230 1060 1222 1059T1213 1057Q1197 1046 1178 1026T1143 993Q1132 977 1131 959T1119 929L1072 882Q1052 856 1038 834T998 785Q981 767 981 753Q981 727 999 697T1041 638T1085 586T1109 552L1150 477Q1161 457 1181 440T1213 408Q1230 381 1240 355T1266
303Q1270 294 1283 287T1302 275Q1338 235 1360 213T1393 180T1408 165T1413 159L1463 116Q1484 105 1506 100T1550 89T1595 77T1638 59V36Q1638 23 1633 16T1618 6T1598 1T1574 0H1548Q1537 0 1524 3T1496 10T1466 17T1437 21Q1424 21 1411 18T1382 14L1332 26L1271
21H1251Q1241 21 1236 21T1226 26H1176L984 14H965Q957 14 948 15T931 19T918 26T912 36Q912 44 925 54T957 75T998 98T1040 123T1072 149T1085 176Q1085 181 1083 188T1078 201Q1075 208 1072 216Q1072 219 1066 225T1053 237T1040 249T1031 258Q1025 268 1022
279T1017 302T1011 323T1001 341Q999 342 994 346T983 355T973 365T967 372V400Q960 419 948 436T922 469T896 503T875 541Q872 546 865 561T850 591T833 619T820 631Q783 593 758 548T706 458Q669 400 639 346T590 234Q588 232 587 226T585 216Q583 216 578 209T571
201Q571 180 581 167T606 144T639 126T672 109T697 89T707 59Q707 41 691 33T661 21Q659 19 650 17T628 12T603 7T585 5H581Q546 5 512 15T444 26L325 0Q320 1 316 2Q312 3 308 4T301 5Q283 5 261 0T216 -13T173 -25T140 -31Q124 -29 106 -24T83 -19Q70 -14 61
-11T47 -4T39 7T36 29Z" />
<glyph unicode="Y" glyph-name="Y" horiz-adv-x="1394" d="M305 76Q305 89 317 98T347 112T381 120T407 123L447 118Q458 124 474 126T506 132T534 144T549 170V197L568 215Q568 225 565 230T557 239V334L568 443V484Q568 548 556 604Q542 655 498 704Q498 713
494 722T485 742T476 763T471 782V825L459 841Q448 849 436 862T413 889T392 919T376 948Q374 948 372 958T370 972Q365 994 353 1021T324 1075T291 1129T258 1175Q251 1186 249 1198T245 1223T238 1248T220 1270Q204 1280 176 1288T121 1307T74 1334T54 1375Q54
1386 62 1396T81 1414T105 1426T128 1431Q146 1431 166 1426T208 1419H277Q325 1414 371 1404T464 1393L556 1413Q567 1413 581 1411T609 1404T632 1389T642 1367Q642 1349 630 1337T601 1315T563 1297T525 1277T495 1251T483 1214Q483 1208 488 1188T503 1140T523
1082T545 1025T566 979T582 957Q585 948 593 929T612 890T631 851T646 825Q647 820 656 804T676 769T697 737T713 723Q723 723 738 734T770 760T800 792T820 818Q822 822 823 833T825 846Q825 848 827 852T831 856Q833 860 841 870T860 890T879 910T891 924Q894
949 906 971T932 1014T961 1056T983 1100Q994 1123 1000 1141T1012 1180L1026 1211Q1026 1220 1020 1233T1004 1259T986 1282T972 1297H967Q961 1297 953 1297T936 1296Q921 1296 906 1297T880 1304T861 1319T853 1344Q853 1360 861 1377T886 1394Q888 1394 893
1391T900 1386H902Q920 1386 934 1390T962 1394L1120 1386Q1156 1386 1185 1387T1249 1394Q1251 1394 1259 1395T1276 1399T1296 1402T1312 1405Q1321 1405 1325 1403T1341 1394L1410 1386Q1418 1385 1428 1383T1447 1377T1462 1365T1469 1346Q1469 1342 1463 1335T1455
1323Q1451 1319 1442 1314T1423 1305T1403 1296T1388 1291Q1374 1277 1358 1269T1318 1259Q1287 1254 1266 1245T1223 1218Q1214 1210 1209 1204T1203 1192L1135 1123Q1132 1110 1127 1105T1115 1096T1102 1090T1090 1078Q1084 1069 1081 1058T1074 1036T1068 1014T1057
995L983 915Q979 910 977 901T974 877Q974 866 974 857T972 846Q968 830 952 816T915 787T877 757T853 723L836 671Q827 656 820 648T807 632T798 613T794 581L810 467L794 330Q794 312 794 291T796 249T801 207T810 170Q818 163 828 162T843 159L863 137Q867 133
886 129T931 120T986 110T1040 100T1081 89T1097 78Q1100 73 1101 67T1102 54Q1102 47 1101 42T1097 28Q1097 27 1093 25T1084 21T1074 15T1066 9Q1062 9 1056 6T1049 0H1004Q949 0 897 1T794 14Q749 22 712 27T644 33Q613 33 584 27T526 14T469 1T410 -5H386Q365
-5 345 -2T313 17Q307 26 306 43T305 76Z" />
<glyph unicode="Z" glyph-name="Z" horiz-adv-x="1456" d="M108 16Q108 18 108 23T107 33T107 42T106 48V62Q106 74 108 82T117 102Q121 106 135 123T166 159T197 196T213 218Q223 231 235 247T258 281T277 317T290 353Q296 357 308 369T335 395T360 421T376 439Q397
462 410 487T444 535Q446 538 456 548T478 569T500 589T511 602Q512 604 513 610T517 622T520 634T523 642Q524 643 528 647T536 656T546 665T553 670Q554 673 562 685T580 712T598 740T610 756Q611 759 615 765T623 777T632 789T639 796Q641 800 648 806T658 815Q659
816 663 817T673 820T682 822T686 823Q687 825 688 831T691 844T693 856T696 863Q697 864 701 868T710 877T719 886T726 891Q726 893 727 899T730 911T733 923T734 931L738 935Q740 937 741 937T745 939Q745 940 749 943T757 949T766 955T772 958Q779 963 781 966T784
974T786 983T793 996Q798 1009 806 1024T825 1052T849 1074T880 1085Q882 1090 888 1103T902 1132T916 1161T926 1180Q934 1194 935 1202T937 1225Q937 1237 931 1244T914 1256T892 1262T869 1266H860Q846 1266 835 1261T812 1256Q807 1256 805 1257Q803 1257 802
1258Q799 1258 792 1262T783 1266Q781 1266 775 1265T763 1262T752 1259T745 1258Q739 1257 719 1256T676 1254T634 1250T610 1247Q608 1247 602 1246T590 1244T579 1241T572 1240Q567 1240 556 1243T542 1247H388Q385 1247 378 1244T361 1236T344 1226T331 1218Q326
1216 312 1203T281 1173T248 1138T222 1112Q213 1101 202 1076T176 1026T145 983T108 969Q100 971 95 978T86 994T81 1012T79 1026Q79 1043 85 1058T99 1089T115 1120T127 1150Q127 1153 128 1160T131 1175T134 1190T136 1199Q137 1202 141 1210T151 1229T160 1247T165
1258Q171 1277 172 1293T174 1322T182 1348T203 1372Q206 1373 211 1373T224 1374T236 1375T245 1375Q276 1375 309 1367T369 1334H418Q450 1334 482 1340T547 1346Q561 1346 574 1340T601 1334H610Q611 1335 617 1338T632 1344T648 1350T658 1353Q659 1353 664
1352T676 1350T688 1347T696 1346H707Q722 1346 736 1349T767 1353H783Q828 1345 872 1340T966 1334H975Q976 1334 980 1336T990 1340T999 1344T1004 1346Q1011 1346 1038 1345T1092 1344Q1106 1344 1115 1344T1129 1346Q1142 1347 1155 1352T1181 1364T1208 1376T1234
1382H1245Q1249 1382 1255 1381T1268 1378T1278 1375T1283 1372Q1284 1371 1287 1364T1295 1348T1304 1330T1312 1315V1308Q1312 1294 1304 1281T1285 1256T1263 1235T1245 1218Q1198 1167 1164 1111T1091 996Q1061 953 1023 915T956 834Q953 832 950 819T947 804Q945
804 942 800T937 796Q935 795 931 793T922 787T913 781T907 777Q901 772 892 763T874 744T858 728T850 718Q848 716 844 705T835 681T826 657T821 642Q814 624 799 606T772 574Q766 566 749 545T711 499T673 452T648 420L639 401Q638 399 620 377T577 324T527 261T485
208Q477 198 470 192T457 178T448 162T444 140Q444 132 451 127T469 119T489 115T504 112Q505 112 512 111T527 108T543 105T553 102Q553 102 558 100T570 94T583 87T591 83H594H599Q636 94 671 106T745 121Q751 121 762 121T788 122T820 122T855 123Q890 123 921
122T966 121Q968 124 974 127T985 131Q987 131 994 127T1004 121H1008H1014Q1015 122 1019 125T1027 131T1036 137T1042 140Q1044 142 1051 137T1061 131H1066H1072Q1074 134 1080 141T1094 156T1109 170T1120 180Q1125 182 1129 184Q1132 186 1135 187T1139 189Q1140
190 1142 196T1148 208T1154 220T1158 227Q1159 228 1161 232T1167 242T1173 251T1177 256Q1179 260 1187 277T1205 314T1223 351T1234 372Q1237 378 1252 391T1286 417T1321 440T1345 450Q1359 450 1368 441T1382 418T1388 391T1390 368Q1390 366 1390 361T1388
353Q1384 345 1375 325T1355 281T1335 237T1322 208Q1307 172 1298 139T1275 80T1235 37T1158 16H1141H1117Q1107 16 1099 15T1080 7H494Q488 5 474 4T445 1T417 -2T399 -3Q396 -3 386 -2T364 1T343 4T331 7H319H309Q307 5 296 1T283 -3H213H146Q141 -3 127 1T108
16Z" />
<glyph unicode="[" glyph-name="bracketleft" horiz-adv-x="866" d="M852 1436Q865 1433 868 1425T871 1405V1391Q871 1369 870 1352T859 1311Q858 1306 853 1303T842 1297T831 1294T823 1292Q788 1286 757 1284T693 1282H641Q628 1273 613 1273H603Q580 1273
560 1278T520 1284Q515 1284 506 1284T494 1282Q485 1282 472 1281T445 1278T420 1275T407 1273Q405 1273 400 1268T388 1257T377 1245T369 1235Q363 1222 361 1197T359 1149V1126Q359 1079 361 1024T369 927Q369 924 372 917T378 902T385 887T388 879V863Q388
852 386 845T369 830V763Q369 761 368 756T364 744T361 732T359 725Q359 722 359 715T360 698T360 677T361 656Q361 645 361 638T359 628Q359 626 357 621T351 609T344 597T340 590V585V580Q340 579 341 574T345 561T348 548T350 541V500V484Q350 482 351 476T354
464T357 452T359 445V436V426Q359 424 358 419T355 407T352 395T350 388V382V379Q350 375 351 362T354 335T357 308T359 291Q359 289 359 276T360 246T361 212T362 185Q362 179 362 164T361 133T360 101T359 80Q357 75 354 61T350 42Q350 37 350 23T349 -7Q349
-23 349 -36T350 -55Q345 -60 338 -69T331 -83Q331 -87 335 -99T340 -112Q345 -137 345 -162T359 -211Q361 -213 365 -218T375 -229T384 -240T388 -247Q389 -250 392 -258T399 -277T404 -295T407 -304Q412 -311 422 -318T437 -327Q444 -327 461 -328T499 -331T536
-334T561 -336H577H592Q594 -336 605 -335T630 -332T654 -329T667 -327Q669 -325 674 -325T686 -325Q700 -325 716 -326T734 -327Q738 -325 749 -321T765 -317H788H814Q816 -317 827 -321T840 -327Q842 -327 851 -326T869 -325Q873 -325 876 -325T881 -327Q899
-329 910 -339T927 -364T935 -396T938 -427V-433Q924 -450 907 -459T871 -473T832 -479T790 -481Q746 -481 703 -478T617 -470T531 -462T445 -458H378Q377 -458 372 -460T361 -464T348 -469T340 -471Q320 -471 296 -466T252 -449T219 -421T205 -379Q205 -327 210
-275T215 -170Q215 -124 207 -79T196 12V40V109Q196 113 195 131T192 171T189 210T186 234V237V244Q187 253 188 273T190 319T192 373T193 427T195 473T196 503Q199 506 202 517T205 533V536V541Q203 544 197 555T186 571V879Q188 881 192 891T196 907Q196 910
195 921T191 945T188 969T186 984V1157Q186 1158 185 1164T182 1177T179 1189T177 1195Q177 1196 177 1207T176 1232T176 1260T176 1282Q176 1288 176 1300T176 1326T176 1351T177 1368Q191 1386 206 1394T238 1404T273 1407T310 1408Q313 1408 323 1409T345 1412T366
1415T378 1417H407H487Q489 1417 500 1422T513 1427Q519 1428 538 1429T580 1432T626 1435T660 1436H677H727Q729 1438 740 1442T753 1446H765H772Q777 1446 788 1445T812 1442T835 1439T852 1436Z" />
<glyph unicode="\" glyph-name="backslash" horiz-adv-x="589" d="M555 -445Q552 -428 548 -421T540 -410T531 -399T520 -377V-348Q518 -334 513 -326T500 -310T486 -297T472 -279Q467 -274 464 -264T460 -243T458 -221T458 -201V-176Q451 -171 445 -160T439 -138L420
-102Q416 -98 410 -88T403 -69Q403 -64 406 -58T410 -50Q410 -31 406 -19T397 3T385 20T373 35Q370 46 368 64T364 102T358 138T347 163Q347 163 341 168T326 180T312 193T304 202L297 242Q297 244 294 248T286 255T278 262T273 266Q262 277 262 298L264 341Q264
357 262 369T254 393Q247 402 235 416T211 447T189 477T176 500Q172 518 172 536T155 574Q146 588 143 596T137 612T132 629T119 654V682L79 798Q74 803 69 810T60 829Q60 849 60 858T62 875Q24 922 12 984V1017Q12 1028 11 1034T0 1045Q-8 1056 -20 1072T-46 1106T-71
1141T-89 1171Q-89 1201 -89 1210T-94 1228Q-104 1241 -112 1250T-127 1269T-138 1289T-142 1317V1370Q-144 1371 -147 1376T-153 1386T-158 1397T-160 1403V1467Q-146 1474 -126 1482T-90 1490Q-59 1490 -39 1476T0 1439Q3 1439 10 1418T24 1369T37 1316T43 1284Q54
1255 70 1228T98 1171Q116 1115 134 1057T176 945Q183 927 192 915T210 892T225 868T231 836L233 815Q233 813 237 805T243 794Q255 782 262 761T275 717T286 670T297 631Q300 615 307 601T323 572T338 544T349 512Q349 508 350 501T356 479Q367 439 382 396T418
318Q421 321 430 302T452 252T480 183T509 108T536 41T558 -3Q562 -14 565 -22T569 -47Q569 -61 569 -68T572 -81Q573 -82 578 -86T589 -96T601 -107T607 -114Q607 -116 608 -123T610 -140T611 -157T612 -170Q616 -184 625 -194T640 -213V-232Q643 -252 652 -270T670
-308T687 -346T695 -386Q695 -389 687 -401T669 -428T648 -453T631 -464L555 -445Z" />
<glyph unicode="]" glyph-name="bracketright" horiz-adv-x="915" d="M75 -471Q61 -468 59 -459T56 -439V-426Q56 -403 57 -386T68 -346Q68 -342 73 -338T84 -332T96 -329T104 -327Q139 -320 170 -319T234 -317H286Q299 -308 313 -308H324Q346 -308 366 -313T407
-318Q412 -318 421 -318T433 -317Q441 -317 455 -316T482 -313T506 -310T519 -308Q521 -307 526 -303T538 -292T549 -280T557 -270Q564 -257 566 -232T568 -183V-161Q568 -114 565 -59T557 38Q557 41 555 48T549 63T542 78T538 86V102Q538 114 540 121T557 135V202Q557
204 558 210T562 222T566 233T568 240Q568 243 568 250T567 268T567 289T566 310Q566 321 566 328T568 337Q568 339 570 345T576 357T582 368T587 375V381V386Q587 387 586 392T582 404T578 416T576 424V465V481Q576 483 575 489T572 501T569 513T568 521V529V540Q568
541 569 546T571 558T574 570T576 578V583V586Q576 590 575 603T572 630T569 658T568 675Q568 677 568 690T566 719T565 753T564 780Q564 786 564 801T566 833T567 865T568 886Q569 890 572 905T576 924Q576 929 577 942T578 972Q578 988 577 1002T576 1021Q581
1025 588 1034T595 1048Q595 1053 591 1064T587 1078Q582 1103 582 1128T568 1176Q566 1177 561 1182T552 1194T543 1206T538 1213Q537 1216 534 1224T528 1242T523 1260T519 1270Q515 1276 505 1283T490 1292Q483 1292 465 1293T428 1296T390 1299T365 1301H350H334Q332
1301 321 1300T297 1297T273 1294T260 1292Q258 1291 253 1291T241 1291Q227 1291 211 1291T192 1292Q188 1290 177 1286T161 1282H139H113Q111 1282 100 1286T87 1292Q84 1292 75 1292T57 1291Q47 1291 45 1292Q27 1294 16 1304T-1 1330T-9 1362T-12 1393V1398Q1
1415 18 1424T55 1439T95 1445T137 1446Q180 1446 223 1443T310 1435T395 1428T481 1424H549Q549 1424 554 1426T566 1430T579 1434T587 1436Q607 1436 630 1431T674 1414T708 1386T722 1344Q722 1292 717 1241T711 1135Q711 1089 719 1044T730 953V926V856Q731
851 732 834T734 795T737 756T741 732V728V721Q740 711 739 691T737 646T735 592T733 539T731 493T730 462Q728 459 725 448T722 432V429V424Q723 421 729 410T741 394V86Q738 84 734 74T730 59Q730 56 731 45T735 20T739 -4T741 -19V-192Q741 -193 742 -199T744
-211T747 -223T749 -230Q750 -232 750 -242T751 -267T751 -295T751 -317Q751 -323 751 -335T751 -361T751 -387T749 -403Q735 -421 720 -428T688 -439T653 -442T616 -443Q613 -443 603 -444T581 -447T561 -450T549 -452H519H440Q439 -452 435 -453T427 -457T418
-460T414 -462Q408 -463 389 -464T346 -467T301 -470T267 -471H249H199Q197 -472 186 -476T173 -481H161H154Q149 -480 138 -479T114 -476T91 -473T75 -471Z" />
<glyph unicode="^" glyph-name="asciicircum" horiz-adv-x="964" d="M473 988H468Q454 981 443 966T423 934T407 900T392 870Q390 869 386 864T376 852T367 840T362 832Q354 817 350 799T339 764T323 736T290 725Q280 725 267 732T257 754Q260 772 268 787T287
818T308 849T324 882Q332 906 338 933T351 989T368 1043T392 1093Q396 1100 406 1114T426 1144T446 1173T459 1190Q462 1194 473 1204T489 1218Q490 1218 492 1219Q494 1219 494 1219T497 1220Q499 1220 502 1219T508 1218Q536 1211 551 1205T584 1180Q585 1177
588 1170T594 1161Q611 1100 624 1040T651 919Q654 902 662 882T670 841V832Q670 831 669 826T666 814T663 802T662 796V789Q662 775 666 761T670 732Q670 712 664 696T643 668Q640 671 633 676T617 688T603 699T594 706Q592 708 589 715T584 727Q582 729 579 736T573
751T568 765T565 773Q563 775 560 781T554 793T549 806T546 813Q544 816 541 830T535 861T530 891T527 908Q524 917 520 928T509 950T495 971T478 988H473Z" />
<glyph unicode="_" glyph-name="underscore" horiz-adv-x="966" d="M20 -206V-161Q20 -148 21 -129T28 -91T47 -58T84 -42H151Q177 -37 201 -30T257 -22L330 -35Q350 -35 360 -32T387 -28Q409 -28 431 -32T474 -40T517 -48T560 -52L707 -33L762 -42Q773 -42 779
-39T797 -31Q808 -27 814 -25T837 -22Q868 -22 895 -32T940 -62Q946 -65 946 -71Q946 -75 945 -78T943 -83Q941 -86 940 -88Q940 -102 939 -114T935 -138L939 -183L933 -211Q921 -222 906 -229T873 -239T839 -244T805 -246Q774 -246 735 -242T664 -237Q475 -237
288 -246Q245 -247 203 -254T122 -261Q108 -261 92 -257T62 -244T36 -227T20 -206Z" />
<glyph unicode="`" glyph-name="grave" horiz-adv-x="1071" d="M233 1381Q233 1400 241 1416T262 1445T292 1464T327 1471Q349 1471 368 1462T404 1439T436 1408T464 1374Q466 1371 469 1368T474 1362Q476 1360 481 1353T493 1337T504 1319T512 1305Q513 1303
516 1298T522 1287T527 1275T531 1267Q533 1265 536 1262T543 1256Q554 1247 571 1235T598 1208Q600 1207 605 1199T617 1181T629 1163T636 1151Q638 1149 644 1144T657 1133T670 1121T678 1113Q682 1106 686 1091T693 1059T697 1027T699 1004Q689 1004 676 1004T648
1007T620 1013T598 1026Q598 1029 595 1036T591 1045Q590 1046 586 1048T576 1051T566 1054T560 1056Q558 1057 552 1064T537 1079T522 1094T512 1102Q510 1105 499 1108T486 1113Q473 1121 459 1133T430 1159T402 1186T377 1208Q373 1212 358 1226T324 1257T291
1288T271 1305Q256 1322 245 1340T233 1381Z" />
<glyph unicode="a" glyph-name="a" horiz-adv-x="895" d="M593 131Q592 132 590 137T586 149T583 160T581 166Q579 169 579 174T579 187Q579 193 579 199T581 208Q567 221 565 231T562 256V277Q562 279 560 283T557 289Q554 291 546 300T532 311Q524 318 512 320T491
329Q489 329 482 329T472 330Q465 328 456 324T444 317L434 311L385 317H361Q348 317 334 312T307 299T282 281T263 259Q261 257 259 247T257 235Q255 229 251 223T247 208L245 183L238 157L247 111Q247 109 250 106T257 99Q268 88 268 86Q268 85 271 84T279 82T287
81T292 80Q298 80 308 79T327 74T344 64T351 45Q351 33 342 22T320 7Q315 6 304 4T280 -1T255 -6T238 -10L214 0L69 -10Q56 -8 47 -6T30 0T17 11T5 31Q5 49 15 60T41 80T72 94T98 107Q98 109 100 110T105 114Q114 123 124 135T140 161Q141 162 143 167T147 178T150
189T152 195Q163 224 178 247T204 294Q205 295 207 300T211 311T214 322T216 329L233 400Q234 401 236 405T240 415T243 424T245 429L263 488Q269 510 278 524T297 559L302 588Q304 592 306 601T309 612L320 647Q320 651 321 658T324 673T326 688T327 699V775Q327
778 329 784T335 796T342 808T351 817L385 829Q388 829 394 836T403 846L437 862L463 887Q480 887 491 874T510 846Q511 841 514 830T521 807T528 783T532 768V739Q534 737 536 733T539 727Q553 704 563 676T581 618Q583 598 583 595T586 592Q595 592 599 584T609
564L621 531Q621 528 624 522T631 507T638 492T643 481Q644 480 650 472Q653 468 655 465Q656 463 659 455T665 436T670 418T673 407Q678 387 684 367T702 329Q702 326 710 317T719 304L725 277Q729 260 733 249T738 227Q738 224 740 215T746 196T751 177T754 166Q756
155 764 142T780 126Q781 125 787 122T801 116T815 109T823 106Q835 98 845 95T863 87T874 74T878 50Q878 35 862 25T825 8T782 -2T750 -5Q724 -5 703 2T652 9L574 0Q564 0 549 1T520 7T495 20T484 42Q484 61 501 68T538 82T576 96T593 126V131ZM403 389Q404 389
410 388T425 384T442 380T456 377L479 372Q480 373 487 374T502 377L522 381L503 457Q501 466 500 481T498 502Q498 515 496 524T489 543T480 561T470 583Q468 590 457 599T437 616Q434 619 427 619Q418 619 409 612T389 605Q380 605 371 590T353 556T339 517T332
488V412Q334 409 338 400T344 389Q346 387 348 385T354 382Q356 382 363 383T379 385T394 388T403 389Z" />
<glyph unicode="b" glyph-name="b" horiz-adv-x="858" d="M78 38Q78 64 95 77T139 102Q142 103 151 107T170 116T189 125T201 131Q203 136 208 146T213 161L208 209L213 272V320Q214 322 216 325Q217 327 218 328T220 332L225 363V417Q225 418 226 423T230 436T235
451T237 464Q237 482 228 499T218 536Q218 548 225 562Q224 565 222 573T216 592T211 612T208 628Q208 632 209 642T215 676Q215 697 200 710T165 734T131 760T115 799Q115 814 126 823T153 838T185 845T213 849Q288 855 350 855Q404 855 457 849Q459 849 466 849T481
847T498 845T509 843Q531 840 550 833T590 818Q607 813 621 810T647 800T671 784T694 756Q699 747 708 733T718 708L711 649Q711 647 713 642T717 629T722 616T725 607Q725 599 717 589T706 574L685 545Q685 543 684 536T680 528Q680 526 677 523T669 515T661 508T656
503Q656 503 655 499T651 491T647 482T644 477Q636 464 629 458T621 434Q621 424 626 418T638 408T653 400T668 393Q684 384 693 379T709 368T722 355T737 332Q737 330 742 323T749 313V296Q749 294 754 287T762 277Q762 276 764 274T770 268T776 262T779 258Q779
256 777 250T772 234Q774 232 776 221T779 202Q778 202 776 199T770 191T765 183T762 178V156Q759 135 752 114T732 76L706 64Q667 42 624 36T537 21Q514 17 495 7T455 -3L341 3Q340 3 336 2T326 0T316 -2T310 -3H237Q232 -8 228 -8T213 -9Q207 -8 194 -7T166 -3T138
1T121 3Q106 5 92 12T78 38ZM390 131Q393 125 408 119T443 107T480 98T507 95Q530 95 553 107T585 144Q586 145 586 151T588 164T589 178T590 185Q592 187 597 195T602 213Q602 224 597 233T590 253Q590 255 590 264T588 285T587 307T585 320Q583 334 577 349T554
368Q552 369 544 370T527 372T509 373T499 374Q497 375 481 382T457 393Q444 398 432 407T405 417Q394 417 392 415T390 407Q390 402 390 397T391 384L390 374Q388 372 383 365T377 356V325Q377 324 375 317T372 306Q371 302 371 298V287V274Q371 270 372 266Q372
262 374 252T377 240V216Q377 215 378 210T382 198T387 185T390 178V131ZM383 564Q383 544 391 527T422 509Q439 509 450 519T474 533Q477 534 485 536T502 539T520 542T537 545Q551 557 551 566T554 592Q554 594 556 601T559 611Q559 612 560 613Q560 614 560
615T561 618Q561 621 558 634T550 661T542 688T537 702Q535 704 530 708T520 717T511 726T504 732Q504 734 499 736T492 739Q490 740 481 748T469 756H450Q428 756 417 750T400 731T393 703T390 668Q389 664 388 652T386 624T385 595T384 574Q383 574 383 570T383
564Z" />
<glyph unicode="c" glyph-name="c" horiz-adv-x="999" d="M392 18Q381 18 376 17T357 13L288 44L258 68L222 85Q212 92 206 100T194 117T183 135T169 153Q167 157 163 170T154 197T144 223T137 241Q137 244 133 253T123 272T114 291T108 303Q106 305 105 318T101
341Q94 366 89 391T84 443L87 485Q87 501 87 509T84 530Q82 537 82 544T82 559Q82 567 82 576T84 596Q85 597 88 600T94 608T99 616T103 622Q104 622 105 626T109 636T112 645T115 651Q115 654 123 662T137 681Q138 684 143 694T153 717T163 739T169 753Q169 754
170 755T172 759Q173 761 175 764L176 765Q176 765 178 767L181 770Q182 775 189 785T196 800Q219 800 239 812T283 843Q285 844 290 850T300 864T311 877T317 886Q319 887 324 892L329 897Q334 897 342 896T371 890Q379 890 386 894T402 903T421 912T444 916Q448
916 454 916T463 914Q464 914 468 913T478 912T487 910T492 909Q493 909 499 910T511 914T523 918T530 921Q550 926 562 927T596 928Q601 928 612 927T625 926Q628 924 631 923Q637 921 637 921H672Q674 921 678 919T684 914H710Q712 915 719 916T734 918T748 920T757
921Q757 920 761 918T772 913T784 908T793 904Q793 902 795 900T800 897Q800 895 804 887T810 879Q817 878 827 873T842 854Q842 838 836 826Q834 817 831 807T828 783Q830 781 837 771T847 758Q851 749 852 739T854 717Q854 709 852 695T846 668T835 644T817 634Q806
634 794 645T768 673T741 712T714 754T689 790T667 814Q663 816 647 818T613 821Q601 821 590 826T567 836T544 845T520 850L497 831Q487 823 474 819T447 811T420 805T397 796Q372 779 352 758T303 724V658Q288 641 284 627T271 591Q270 589 268 585T264 575T260
566T258 561Q258 559 261 549T265 537L253 456Q253 442 257 432T265 411Q273 377 279 346T307 286Q308 284 314 278T328 264T342 250T350 241Q351 240 351 235T353 222T354 209T355 200Q357 197 366 189T380 175Q380 175 385 173T397 168T408 162T414 158Q424 151
433 142T452 123T472 107T497 99H535L560 85H577L646 99L684 91Q700 96 716 100T745 111Q746 111 750 119T764 158Q764 160 765 166T766 179T768 192T769 200Q774 223 783 245T800 291Q804 305 805 314T809 329T819 340T840 350Q841 351 846 353T856 357T866 360T873
362H874Q880 362 889 358T906 347T920 334T926 321V231Q930 224 930 215T931 189Q931 164 914 141T873 100T822 67T776 44Q774 42 764 41T752 39Q732 31 714 17T672 -5Q670 -5 662 -6T644 -7T623 -9T608 -10Q605 -10 596 -10T575 -10T551 -11T532 -11Q527 -11 519
-11T502 -11T487 -10T480 -10Q460 -6 442 -1T407 14L392 18Z" />
<glyph unicode="d" glyph-name="d" horiz-adv-x="1073" d="M71 43Q71 50 73 64T76 80Q78 81 87 85T100 92Q121 94 138 99T168 109Q172 111 178 116T189 128T199 140T204 147Q204 148 205 156T209 175T213 198T216 220Q216 238 210 253T204 285Q204 295 205 310T210
341T217 371T228 396V488Q228 494 224 500T216 512T208 524T204 538L216 612Q216 623 212 645T202 690T189 733T175 761L144 792Q138 796 130 800T116 810T104 821T99 837Q99 845 101 847T112 853Q135 857 159 859T206 862L247 860Q249 860 255 862T265 865L289
860Q311 864 333 865T379 867Q404 867 428 866T477 860L497 865Q526 857 550 854T600 846Q606 845 617 843T640 837T661 832T673 829Q675 827 682 822T692 817Q694 815 699 815Q701 815 706 815T720 817Q729 817 740 810Q741 808 747 803T761 792T775 780T784 773Q795
764 810 764T837 756Q853 747 872 729T898 695Q900 693 901 683T905 671Q906 668 910 663T919 651T928 640T936 633Q937 632 942 629T953 621T965 614T972 609Q974 607 975 597T977 585Q978 583 981 577T987 564T993 551T996 543L984 389Q973 378 970 364T967 334T964
301T953 268Q933 230 911 200T856 140L837 128Q836 127 831 122T820 110T809 99T801 92Q789 83 772 82T740 73Q738 71 724 62T697 48Q695 47 685 45T673 43Q671 42 663 37T644 27T624 18T612 12H545Q543 12 538 11T526 7T513 3T502 0Q499 2 488 4T472 10L168 0Q166
1 158 3T141 9T123 15T112 19Q108 20 101 20T88 21T76 25T71 36V43ZM464 80Q504 80 545 90T625 109Q627 111 639 115T656 123Q659 125 667 133T684 150T702 169T716 183Q719 186 725 193T737 207T750 222T758 232Q759 232 761 236T765 244Q765 245 767 249T771
259T774 268T777 273Q782 282 789 290T796 310L789 351Q789 374 797 397T808 445V481Q808 510 800 537T784 592Q781 601 771 612T750 634T727 657T709 676Q698 693 691 705T661 725Q659 725 649 727T637 732Q635 732 623 740T600 756Q558 770 517 781T424 792Q419
792 416 791T405 785Q400 782 393 772T379 750T367 727T362 709Q362 692 368 678T375 645Q375 643 375 636T374 628Q369 572 367 520T363 420L368 401Q371 396 371 392T374 384Q375 379 375 368V351Q375 347 375 338T374 329Q374 327 369 317T363 304L381 268Q381
266 382 256T384 234T386 209T388 189Q390 178 391 168T393 145Q393 129 388 109Q389 102 393 96T405 85L464 80Z" />
<glyph unicode="e" glyph-name="e" horiz-adv-x="939" d="M89 43Q89 64 99 76T123 97T155 112T186 131T211 160T221 208Q221 216 221 223T219 239Q216 257 216 277Q216 293 219 310Q221 318 221 324T221 339Q221 350 220 359T217 379Q216 390 215 402T214 426Q214
437 215 447T217 469Q219 480 221 490T223 512Q223 530 220 548T212 585Q208 600 206 616T203 649Q203 655 204 660T207 671Q210 681 210 692Q210 693 210 693T209 696V699Q208 702 206 707T200 718T195 729T191 735Q187 739 177 749T156 771T135 793T120 806Q119
808 117 812T114 818Q114 838 129 855T160 877Q167 880 178 884T201 891T222 898T233 901Q235 901 243 902T255 903Q269 903 281 900T307 894Q315 893 324 891T342 889Q351 889 358 890T373 893Q380 894 387 895T402 896Q421 896 437 890T470 884Q471 884 477 884T490
883T505 883T518 882Q566 882 613 888T709 896Q714 900 717 900T728 901Q754 890 767 872T786 830Q786 828 786 822T788 809T790 796T792 789Q792 788 793 786T795 775T797 751T799 711Q799 698 786 690T761 682Q750 682 743 684T730 690T718 699T703 711Q702 711
698 713T691 718Q690 718 682 719T672 723Q652 731 641 745T613 777Q608 777 598 777T575 779T551 781T536 784Q534 784 524 789T511 794Q510 796 500 796T484 796Q464 796 450 789T426 770T410 743T399 711Q399 709 397 699T392 685Q392 683 393 680T399 657Q399
626 391 596T382 533Q382 524 388 519T402 512T420 510T437 509H460Q465 509 473 510T490 512T504 514T511 516Q512 516 517 519T527 527T539 537T548 545Q551 548 555 552T564 560T572 569T577 574Q586 586 586 600T588 625T597 644T626 652Q655 652 667 634T679
588Q679 571 675 561T667 543T659 526T655 503Q655 490 660 482T667 462L672 396Q673 395 674 390T678 379T682 366T684 355Q683 350 683 343T681 329Q680 321 679 313Q678 310 674 306T665 297T653 288T643 284Q639 284 633 284T626 289Q624 291 622 301T620 313Q615
322 607 335T589 362T567 391T543 415Q532 423 520 424T499 426L460 413Q458 413 451 416T440 419H436Q434 419 433 419T430 420Q425 420 417 414T402 400T388 382T382 367Q382 365 381 355T380 337Q380 335 380 331T381 323Q381 319 382 313Q382 305 385 285T392
242T399 199T404 170Q418 155 424 143T435 120T451 105T485 99Q510 99 534 104T584 111H608Q610 111 619 116T631 123L655 128Q659 130 665 131T672 135Q675 137 687 146T703 157Q713 165 724 166T743 176Q755 186 766 198T790 222T816 240T849 247H870Q878 242
880 233T882 215Q882 169 857 128Q857 127 854 122T846 111T838 100T833 92Q832 91 831 86T830 75T828 64T826 57Q826 55 825 51T821 45Q819 42 814 36T801 24T788 11T780 3H771Q753 3 735 0Q714 -3 693 -3Q672 -3 655 3T613 10Q608 10 597 10T584 9L537 2Q515
-2 492 -2T446 -3H373Q357 -3 345 0T319 3Q309 3 300 -3T281 -9L226 3Q225 3 218 2T202 -2T183 -6T167 -9Q155 -9 142 -6T117 3T97 19T89 43Z" />
<glyph unicode="f" glyph-name="f" horiz-adv-x="848" d="M86 45Q86 62 93 69T112 81T136 88T160 100Q163 103 169 109T181 122T193 135T201 144Q203 144 205 151T208 163Q209 166 210 172T212 184T214 196T215 204V265Q215 266 217 277T221 296Q221 298 223 308T227
320V436Q232 444 238 457T245 481V484Q242 502 241 519T237 553T229 586T215 618V728Q212 730 209 733Q207 735 205 736T201 740Q190 749 172 760T136 786T105 816T92 849Q92 871 112 874L196 879Q198 881 205 883T215 886H236L285 879Q290 879 301 885T317 893L482
886Q491 886 498 889T516 893Q532 893 543 890T575 886Q602 886 627 893T679 900Q700 900 722 898T762 893Q770 891 777 885T791 870T801 851T805 832Q805 825 804 819T798 813L786 777Q789 773 793 759T798 740Q800 739 800 737T800 734Q800 723 786 715T762 704Q760
705 757 706Q751 708 750 709L733 728L696 746Q695 747 691 752T684 758Q642 781 600 785T509 789H445Q443 787 439 783T430 774T421 765T414 758L412 750Q410 742 409 740L404 704Q403 703 401 700T395 692T389 685T385 680V673L392 638Q392 629 390 625T380 612V528Q380
527 384 523T393 512T404 500T414 490Q421 485 425 484T437 483L501 497H508L518 490H560Q569 490 576 491T592 497V500Q592 508 594 521T598 538Q598 540 601 544T607 554T613 564T617 569Q621 576 624 585T631 601T642 614T658 619Q684 619 699 598T714 552V533L708
514V472L701 448V410L696 362Q695 357 692 350T683 336T672 325T660 320Q644 320 636 331T623 356T610 381T589 393L525 386H494Q470 407 444 407Q436 407 427 406T409 400Q406 397 401 392T392 382T384 373T380 368V235L385 223V180Q385 177 391 167T397 156Q397
153 399 143T404 131Q405 129 406 128Q409 125 409 125Q411 123 415 120T424 114Q428 110 433 107Q434 107 440 106T454 104T468 102T477 100Q478 100 488 95T501 88Q508 85 514 85T527 83T538 78T549 69Q552 67 556 58T561 45Q560 42 559 40Q556 35 556 35Q542
16 522 10T478 3Q477 3 473 3T448 4T387 6T272 10Q254 10 237 4T201 -3Q192 -5 183 -5T165 -5Q152 -5 140 -5T113 0Q102 11 94 21T86 45Z" />
<glyph unicode="g" glyph-name="g" horiz-adv-x="1016" d="M441 -17L423 -10L361 2Q339 6 319 15T276 31Q263 36 249 39T223 50Q222 51 221 51T219 53Q217 54 216 55L173 111Q172 113 169 118T162 129T154 140T148 149Q146 151 145 153Q143 157 143 159Q134 182
123 202T100 246Q98 248 97 254T95 263Q90 301 86 342T81 422Q81 460 88 495T107 567Q107 570 108 580T112 593Q113 594 116 599T124 611T133 622T138 628Q138 630 140 635T143 642Q157 681 176 711T228 770L252 787L283 818L295 836Q305 847 318 848T344 855Q346
855 350 857T356 860L375 874Q377 874 386 874T405 875T425 877T436 879Q437 879 452 886T479 898Q481 898 484 899T489 903Q493 901 503 901T526 901Q537 901 548 901T564 903Q565 903 569 905T579 909T588 913T593 915L667 927H680L721 915Q724 915 734 909T745
903H806Q808 903 812 902T820 898Q839 886 855 875T884 849T903 816T910 772V756L904 739Q904 737 903 729T902 712T900 694T898 683Q898 683 894 679T884 668T872 656T861 647Q856 643 853 642T844 640Q836 640 830 644T820 652Q800 676 784 700T748 745T707 784T655
811Q652 812 646 813T632 817T617 821T607 823H593Q587 823 571 821T536 816T502 810T479 806Q476 805 469 802T453 795T439 787T429 780Q427 779 420 772T404 757T389 741T380 732Q378 731 375 730Q373 729 371 728T368 727Q336 707 310 676T266 608T238 529T228
446Q228 429 228 410T232 371T243 335T264 306L289 215Q291 206 297 200T312 189T328 181T344 173Q347 171 353 161T367 139T382 115T392 99Q401 87 414 87T441 80Q442 80 445 78T453 72T460 66T465 62Q487 48 508 43T555 38H576Q577 38 581 40T591 44T600 48T607
50Q609 52 619 53T631 55Q653 62 662 72T674 94T681 121T697 154L704 294Q704 303 694 308T669 318T637 326T604 337T579 354T569 381Q569 387 571 390T583 398Q583 399 588 401T601 406T614 411T624 415H626Q643 415 658 409T690 403Q692 403 694 404Q695 404
697 405Q748 409 800 413T904 417L934 415Q936 415 939 408T948 375Q948 365 937 356T911 335T885 310T873 275Q873 263 879 255T885 237Q885 224 879 216T873 192L892 112Q892 101 890 94T885 80T875 67T861 50Q859 48 858 47T854 45Q854 44 850 43T840 41T831
39T825 38Q808 33 795 22T757 2Q756 1 749 0T734 -1T718 -3T709 -5Q699 -7 689 -12T668 -22T647 -32T628 -36H618Q614 -36 612 -35L588 -22H552Q549 -22 542 -21T532 -17H441Z" />
<glyph unicode="h" glyph-name="h" horiz-adv-x="1189" d="M327 -19Q304 -19 285 -12T245 -5L188 -19Q168 -19 149 -18T110 -12Q97 -10 95 2T93 28Q93 43 106 50T136 63T169 74T190 92L202 133Q203 136 206 143T214 158T222 174T226 183Q231 195 232 206T233 228V287Q232
301 227 315T221 346Q221 355 224 359T230 367T237 374T240 384Q240 392 237 398T231 412T224 426T221 441L226 469L221 503L233 541L226 635Q226 646 229 655T233 676Q233 692 228 706T221 737Q219 737 215 738T205 740T196 742T190 744Q189 744 185 745T175 749T165
753T159 756Q146 760 130 763T101 773T78 789T69 818Q69 827 69 836T73 855T82 870T98 877Q100 877 109 878T131 880T154 882T173 884H185Q196 884 204 881T226 877Q235 877 241 877T253 878T265 880T282 884L299 889L332 882Q343 882 350 885T366 889Q380 889
393 881T422 870Q440 869 459 869T494 865T520 848T531 811Q531 803 524 796T508 782T490 771T475 761Q474 759 464 749T451 737H448Q439 737 433 740T418 744H415Q406 739 405 725T403 706V633Q403 632 402 626T400 613T398 599T396 592V554Q396 543 396 531T400
507T409 489T427 481L514 488Q528 488 537 485T567 481H583Q592 481 599 482T617 488Q619 488 627 493T643 500Q653 500 660 497T675 491T691 484T711 481H738Q739 481 744 482T754 484T763 487T768 488Q778 489 788 489T808 492T823 502T830 524V628Q830 630 827
644T823 668Q823 681 830 694T837 727Q837 731 836 733T830 737L768 768Q766 768 753 770T738 773Q738 773 734 776T723 785T711 796T702 804Q695 809 689 815T683 830V834Q686 844 693 854T710 872T731 885T752 891Q754 891 756 891T761 890Q764 889 768 889Q770
889 777 887T787 884H854Q857 883 868 882T893 880T919 878T934 877H1029Q1041 876 1054 875T1078 870T1096 858T1103 834Q1103 818 1098 811T1081 798L1072 792Q1071 791 1064 786T1049 774T1033 762T1024 756Q1018 751 1011 749T997 744T986 736T982 720Q982
711 985 703T988 682Q987 679 986 674T984 663T983 653T982 647Q982 645 979 640T975 633V573Q975 571 973 562T968 545Q966 529 965 519T963 493V474Q963 472 965 462T968 450V336Q970 333 972 323T975 311Q977 297 977 285T977 259Q977 242 976 224T963 171Q964
169 966 165L968 159Q971 155 973 149T975 140L982 109Q984 108 991 105T1005 98T1020 91T1031 85Q1039 82 1050 78T1072 67T1090 51T1098 29Q1098 27 1097 24T1091 19H1079Q1065 19 1054 17T1034 11T1013 5T988 0H963L944 -5H756Q748 -5 738 -2T718 6T702 19T695
36Q695 50 706 65T731 85Q732 85 738 86T750 88T762 90T768 92Q769 92 773 96T782 104T791 114T799 123Q808 132 808 147L806 171L811 240Q811 251 809 259T806 277Q806 287 809 297T817 319T826 340T830 360Q830 371 818 379T797 393L751 396L640 389Q633 389
627 390T617 396H538L434 384Q431 383 426 381T415 375T404 369T396 365Q392 363 392 361T391 353Q391 339 394 329T398 298L391 225V201Q391 199 393 193T397 180T401 167T403 159V128Q404 127 406 122T411 112T417 101T422 92Q424 89 428 85T434 80L500 67Q504
67 510 60T519 48V43Q519 41 519 39T520 35Q520 21 513 10T493 -9T467 -21T439 -26L398 -12L327 -19Z" />
<glyph unicode="i" glyph-name="i" horiz-adv-x="625" d="M69 29Q69 49 82 56T114 67T153 72T187 83Q188 84 189 86Q192 89 192 90Q195 94 200 103T211 121T222 139T228 151Q233 159 234 167T235 194Q235 205 233 212T229 225T225 237T223 253L242 353Q242 357
241 366T235 400V448Q233 451 228 464T223 486Q231 511 233 535T235 586V619L228 650Q226 662 226 674T226 699Q226 710 226 722T228 747Q226 758 215 768T199 784Q179 798 157 799T115 802T82 814T69 858Q69 878 86 884T119 893H176Q222 893 266 894T356 900Q363
905 373 906T394 907H460Q462 907 467 906T479 904T490 901T496 900Q510 900 525 898T540 887Q541 882 542 878T543 868Q543 862 542 856T540 844Q538 839 531 835T514 826T496 820T484 815L448 784Q440 779 428 777T411 765Q410 763 406 754T399 740Q398 738 396
730Q395 726 394 723V631Q394 629 396 621T399 600Q399 598 397 591T393 576T389 561T387 552V467L380 353L399 265V235Q399 233 397 222T394 206Q394 203 397 196T405 180T414 165T418 156Q421 147 422 135T427 111T438 91T460 83Q471 83 479 86T496 90Q503 90
514 88T537 82T556 70T564 52Q564 36 557 26T538 9T512 0T486 -3L377 3H349Q347 3 337 0T325 -3H223L180 -9H149Q138 -9 125 -9T99 -5T78 7T69 29Z" />
<glyph unicode="j" glyph-name="j" horiz-adv-x="612" d="M-71 -467Q-71 -460 -71 -451T-70 -439Q-69 -438 -65 -433T-55 -421T-46 -409T-40 -401Q-27 -383 -16 -373T22 -363Q51 -363 79 -370T134 -391Q135 -392 139 -395T147 -401T156 -408T160 -412H171Q182
-412 190 -408T202 -391L233 -209V-180Q233 -170 233 -146T232 -96T230 -48T228 -17Q228 -14 227 -7T225 8T222 22T221 31Q221 33 220 39T218 50Q218 52 218 55T219 62Q220 66 221 69Q221 72 224 84T228 99Q230 101 230 109T230 130Q230 142 230 155T229 181T229
202T228 215Q228 216 229 224T233 242T237 260T240 272V282Q240 299 235 313T225 342T214 370T209 403Q209 435 215 464T221 522Q221 575 218 621T209 723Q207 726 204 734T196 752T187 769T179 780Q177 788 173 789T160 791Q152 791 149 790T143 786T135 782T117
780Q90 780 73 799T55 846V858Q68 879 88 893T131 907H152Q156 906 173 905T209 901T245 898T266 896H500Q507 893 512 889Q517 886 521 883T525 877Q534 862 534 844Q534 828 525 810Q523 804 517 799T503 790T489 784T480 780H444H432Q430 780 426 777T420 772Q415
760 412 746T408 718T405 691T401 666Q401 665 400 661T398 651T395 642T394 637Q393 635 392 626T388 604T385 580T382 561V554V550Q383 549 386 545T392 536T397 527T401 521Q401 513 401 493T402 449T403 406T404 377Q404 339 404 305T403 238T400 171T394 99L413
69V31V-26Q413 -29 411 -37T407 -56T403 -74T401 -85Q401 -89 402 -109T403 -147Q403 -156 403 -162T401 -171Q401 -173 400 -179T398 -193T396 -208T394 -218Q392 -220 387 -228T382 -239Q382 -241 383 -252T384 -273Q384 -284 382 -285Q377 -314 365 -339T336
-388T302 -433T266 -477Q264 -482 258 -489T247 -498Q239 -504 225 -514T195 -535T168 -554T152 -564Q140 -571 124 -572T91 -574H74Q45 -574 19 -571T-28 -556T-59 -524T-71 -467Z" />
<glyph unicode="k" glyph-name="k" horiz-adv-x="1047" d="M741 5Q733 5 727 4T712 2Q701 0 691 -1T670 -2L634 0Q620 4 613 13T603 35T600 59T599 83Q598 88 596 101T593 128T590 155T587 173Q578 185 574 196T563 220L544 239Q544 240 542 249T539 261Q535 272
522 293T493 336T458 372T426 388Q423 386 418 384T408 378T397 372T390 368Q386 367 382 361T378 351Q376 333 375 314T374 275L378 183Q378 182 376 175T373 161Q373 160 375 154Q376 151 378 149V125Q380 114 385 112T395 100L407 78Q408 76 413 72T423 63T433
54T438 48V36Q438 28 434 24T423 17T409 12T395 5H312Q307 0 302 -1T290 -2Q273 -2 260 2T227 7L137 -2Q134 -2 130 -2T121 -1Q116 -1 111 0Q110 0 106 2T96 7T84 13T75 17Q70 20 69 22T68 29Q68 40 78 46T101 56T127 63T146 71Q173 93 191 124T212 190V225Q212
233 212 241T217 256Q215 273 215 290T215 324Q215 341 215 358T217 393Q219 395 223 404T229 419L222 455L229 521V559Q229 563 229 573T227 594T226 616T224 631Q222 633 218 639T212 649L205 661V708Q200 715 196 720Q192 725 188 729T182 737Q174 746 159 755T127
773T99 794T87 818Q87 822 92 825T103 832T116 836T127 839Q143 841 157 842T188 843H214Q219 841 224 841T236 841Q244 841 250 841T265 844Q310 835 356 836T451 832Q459 827 462 817T468 798Q465 796 460 791T449 780T438 769T431 761L414 727Q412 725 407 721T402
714Q401 712 400 707T399 696T397 685T395 678L373 654Q372 649 372 645Q371 641 371 636T371 626Q371 620 372 613T378 600L380 561L378 522Q373 518 372 513T371 503Q371 490 378 483T390 464Q392 462 394 455T404 446Q415 446 420 454T426 476Q440 484 447 494T458
516T467 540T478 566Q480 569 483 574T490 584T497 594T502 600L539 644Q540 645 542 657T544 671Q548 682 554 692T563 714V756Q567 761 579 767T592 778V798Q595 808 604 815T624 828T648 836T670 839Q681 839 690 838T710 836Q717 834 724 833T738 832H753Q756
833 763 837T777 844T791 851T800 856H902Q908 856 919 855T941 850T960 842T968 830Q968 824 964 815T955 798T943 783T931 773L902 766Q901 766 896 765T884 762T871 759T861 756Q850 752 839 745T819 737L791 744Q788 744 774 741T744 732T713 722T694 714Q692
713 688 709T678 699T669 689T663 683L646 671Q644 671 634 670T622 666Q613 662 606 650T593 622T584 591T580 566Q580 552 581 537T592 510L639 458Q639 455 640 448T642 434T644 420T646 410L658 393V363Q659 352 667 344T686 329T706 316T722 304Q724 302 729
292T734 279Q736 277 741 270T746 261Q747 260 751 253T759 238T766 223T771 215Q773 210 781 205T798 194Q803 190 808 187T817 178Q820 176 824 169T831 161Q833 158 838 152T851 140T864 127T873 119Q880 111 893 107T920 98T948 89T973 78Q978 73 978 71Q982
65 991 55T1010 35T1027 15T1034 0Q1034 -14 1022 -19T999 -24Q985 -24 974 -21T949 -17Q936 -17 921 -22Q914 -25 907 -27T883 -29Q882 -29 877 -28T866 -24T855 -20T848 -17Q847 -17 841 -17T828 -16T814 -14T807 -12Q796 -9 790 -6T777 -1T762 3T741 5Z" />
<glyph unicode="l" glyph-name="l" horiz-adv-x="888" d="M80 52Q80 70 89 77T111 88T138 94T163 102Q174 108 180 117T191 136T198 158T206 180Q208 207 209 233T211 287Q211 307 210 326T208 365Q214 374 221 387T228 417Q228 420 227 429T223 448T219 466T216
477Q216 479 216 488T215 507Q215 511 215 514T216 519Q216 521 214 529T211 548Q211 551 215 561T223 578Q221 580 220 590T216 602V661Q216 663 214 668T208 680T203 691T199 697Q194 709 192 721T188 746T182 770T170 792Q167 797 156 808T140 822Q138 823 138
826T138 832Q138 843 146 850T166 858H175Q227 853 276 850T379 846Q390 846 401 851T426 858L464 860L502 858Q506 858 514 852T526 841L533 834Q533 832 531 826T526 817Q522 812 514 803T502 792Q500 792 494 791T481 789T468 788T460 787Q446 784 433 773T410
746T394 715T384 685Q380 667 379 648T377 611L389 519Q389 503 386 489T377 460Q377 454 378 438T379 403Q379 385 378 369T377 346Q377 345 376 339T375 326T373 313T372 304V287Q373 285 376 279T383 264T390 249T394 239Q394 235 395 227T396 211Q396 202 395
196T394 187Q399 184 408 175T419 163V154Q419 149 418 145T415 137Q413 132 413 128T413 119Q413 111 422 106T445 97T470 92T488 90H502Q509 91 529 93T570 96T611 99T638 102Q681 127 719 159T789 228Q792 231 794 236T799 246T806 254T817 258Q823 258 830
253T842 239T851 223T855 208Q855 191 852 178T848 149V138Q845 135 838 126T823 107T809 87T799 73L789 38Q787 36 778 26T765 14Q760 9 754 8T740 7H711Q710 8 705 10T694 14T683 17T675 19H616Q613 19 603 22T592 26Q590 26 584 24T574 19Q570 17 562 13T550
7H455Q442 16 427 17T398 19H377Q366 19 355 17T330 7Q306 5 282 5T232 5Q207 5 183 5T133 7L104 19Q92 24 86 31T80 52Z" />
<glyph unicode="m" glyph-name="m" horiz-adv-x="1409" d="M1077 9Q1046 9 1017 4T954 -2Q952 -2 946 -2T934 -2T921 -2T913 0Q910 1 905 6T893 17T881 29T875 38Q871 40 868 47T865 57Q865 71 874 79T898 92T929 100T962 110T990 126T1008 154V259Q1010 261 1014
273T1019 287V298V308Q1018 310 1015 315T1009 327T1002 339T999 346Q999 349 998 358T995 377T992 398T989 413V469V490Q989 491 988 497T985 509T982 522T980 529Q978 536 975 552T969 586T964 621T961 644Q960 645 957 645T951 645Q940 645 931 637T915 618T903
596T894 576Q891 570 883 548T864 500T846 451T835 422Q831 411 825 404T812 389T798 374T787 355Q784 350 781 340T778 327Q777 324 776 316T773 298T770 280T768 268Q768 266 765 261T759 249T752 237T749 230V182Q747 169 742 141T728 83T706 31T673 9H662Q636
29 617 52T586 106Q584 107 581 122T576 144Q574 147 573 155T570 172T567 190T565 201Q565 206 562 217T557 230Q554 232 546 239T538 249Q536 252 535 260T532 278T529 296T527 308Q527 309 525 315T519 328T513 343T508 355Q506 357 503 365T500 375Q498 376
493 381T484 393T475 406T470 413Q468 416 465 426T459 447T454 468T451 481Q449 483 446 490T441 500Q439 501 436 505T430 514T425 523T422 529Q420 530 417 535T411 547T406 560T403 567Q396 574 381 580T365 586L354 576Q353 571 350 558T344 530T339 501T335
481Q324 427 322 375T316 268Q316 266 314 259T310 244T306 229T304 221V176V133Q307 130 314 124T329 110T344 96T354 86Q366 78 381 78T409 75T432 62T441 22V19Q438 15 431 9T422 0Q421 -1 420 -1Q419 -2 416 -2Q415 -2 414 -1T410 0Q409 0 404 1T392 4T379
7T371 9Q369 9 357 8T329 5T301 2T285 0Q284 -1 275 -1T254 -2T229 -2T207 -2Q200 -2 188 -2T164 -2T143 -2T131 0Q120 0 106 0T78 4T55 16T45 42Q45 68 62 81T103 103T151 120T188 144Q190 145 194 153T204 171T213 190T218 201Q220 202 223 205T230 211Q216 224
212 230T207 249Q207 251 209 254T211 259Q211 266 215 291T223 346T232 400T237 432Q238 437 239 457T242 500T245 542T249 567Q251 586 255 604T265 641T274 677T278 716Q278 744 270 762T237 798Q232 798 220 799T194 802T168 805T150 808Q132 812 117 818T102
846Q102 861 111 872T133 890T161 901T188 905Q192 905 204 900T218 894Q222 894 233 898T249 905H280Q316 905 350 903T422 894Q444 891 461 865T490 804T511 735T527 683Q528 681 532 673T541 655T550 636T557 625Q557 623 558 617T561 602T564 586T565 576Q566
575 569 569T575 554T582 539T586 529Q587 525 589 516T594 496T600 476T605 462Q605 459 606 452T608 437T610 422T614 413Q624 391 637 374T662 339T685 303T700 259Q702 259 703 259T705 258Q716 258 718 269T721 287Q721 300 714 310T707 334Q707 349 716 362T738
387T762 413T778 443Q779 446 780 455T783 476T786 496T787 509Q788 510 791 518T797 529Q814 555 833 584T865 644Q872 663 878 684T891 727T902 769T913 808Q920 836 924 854T936 882T960 898T1008 905Q1012 905 1025 906T1052 908T1079 911T1096 913Q1121 915
1156 919T1216 924H1221Q1223 922 1230 918T1240 913Q1241 913 1248 912T1264 909T1279 906T1288 905Q1295 902 1297 895T1299 881V874Q1299 860 1294 852T1281 840T1263 834T1240 827Q1238 827 1231 823T1221 818Q1216 817 1205 817T1181 817Q1168 817 1158 817T1143
818L1127 803L1141 576V355Q1166 318 1176 272T1192 182Q1193 180 1196 177T1202 173Q1217 165 1247 154T1308 128T1361 96T1384 57Q1384 44 1376 32T1357 11T1333 -4T1309 -10H1297Q1294 -10 1280 -9T1250 -6T1219 -3T1202 0H1153H1134Q1131 0 1124 1T1109 4T1094
7T1086 9H1077Z" />
<glyph unicode="n" glyph-name="n" horiz-adv-x="1150" d="M168 2Q150 2 137 3T104 9Q93 11 92 14T90 26Q90 52 110 63T153 76H201Q203 76 212 85T225 100Q228 102 232 109T237 118Q238 122 239 132T241 154T243 176T244 190L237 268V282Q237 287 238 292T244
301V344L237 469V526Q240 530 244 543T249 567Q249 602 240 630T220 690Q220 692 218 700T213 709Q209 718 207 722T196 734Q193 736 186 741T170 754T153 767T140 777Q128 786 113 792T83 807T57 826T44 856Q44 858 45 864T49 874Q50 876 54 880T61 886H85Q96
887 104 892T125 898Q146 898 166 893T208 886Q210 885 219 884T238 883T257 882T268 881Q270 879 282 873T298 862L329 825Q350 809 369 792T409 758Q409 756 414 755T421 753Q422 751 424 749T426 746L440 721L481 678Q483 676 487 666T493 654Q504 636 517 625T543
605T570 587T597 562Q620 537 635 513T670 460Q670 458 672 457T677 453L694 441Q697 439 704 431T721 414T738 397T749 388Q751 385 758 380T767 374Q773 369 780 360T794 341T808 325T822 318Q833 318 841 324T858 337Q869 345 870 348T872 362L858 452L865 538Q865
539 863 543T859 551T855 558T853 562V586Q853 589 851 596T846 605V697Q846 700 846 708T844 725T843 742T841 753Q839 762 832 769T813 777Q802 777 790 774T765 770Q758 770 742 771T708 775T678 786T665 806V837Q665 849 665 860T670 880T682 893T706 898Q733
898 760 892T813 886Q827 886 845 888T877 898H998Q1006 893 1016 892T1037 891H1061Q1074 884 1076 871T1078 843V837Q1078 810 1054 794L998 758Q998 757 994 756T985 755T975 754T969 753Q965 751 960 742T950 722T942 701T938 689L945 657Q945 656 945 653T943
649Q943 647 941 642T938 635Q935 624 935 610T935 582T933 554T926 533L921 377Q922 350 931 327T943 277L950 166Q952 157 956 147Q961 128 969 106V14Q969 3 958 -3T938 -10Q927 -10 915 -4T891 10T869 28T853 45Q850 48 845 54T833 68T822 80T815 88Q815 90
811 100T805 112Q803 113 797 119T783 133T769 147T761 156Q730 187 706 221Q695 238 682 247T658 270Q658 272 653 279T646 289Q645 290 643 294T637 304T632 313T628 318Q614 337 592 348T554 374L537 393Q535 394 530 401T524 412L488 441L409 526Q405 530 397
538T379 556T363 572T353 581Q348 585 344 586T331 588Q319 588 315 581T310 562Q310 560 310 553T312 545L317 497V412L322 318Q323 318 324 313T326 302T328 291T329 284V221Q329 220 331 210T336 197Q338 174 343 151T348 104Q348 99 348 93T346 81L353 76Q359
75 373 74T402 70T431 66T450 62Q468 61 472 55T476 33Q476 6 456 -2T414 -10Q403 -10 396 -9T382 -6T370 -2T353 3Q348 3 337 6T322 9H272L168 2Z" />
<glyph unicode="o" glyph-name="o" horiz-adv-x="1103" d="M142 216Q142 223 140 234T137 249Q135 252 127 258T118 266Q113 274 111 285T106 304Q104 311 100 324T93 341Q93 343 88 350T81 360L76 370Q76 373 78 383T81 394Q81 399 82 414T83 446Q83 463 82 477T81
498L88 517Q88 518 88 524T90 538T92 552T93 561Q95 565 104 576T118 592Q118 593 115 599T112 609Q111 609 111 610V612L112 616Q120 630 131 647T156 676Q167 686 177 693T197 713Q206 724 212 738T228 766Q228 768 230 770T234 773Q256 789 279 807T325 839Q326
840 331 843T343 849T355 854T362 858L386 877Q389 878 398 878T417 880T436 881T448 882Q449 883 453 885T462 889T471 892T477 894Q494 899 515 903T555 908Q580 908 604 899T654 884Q681 878 708 873T761 860T813 843T862 815Q863 814 867 810T876 800T886 791T893
785Q894 784 904 782T917 780Q921 777 923 772T926 760T929 747T934 737Q935 736 937 732T943 724T949 717T953 713L958 682Q961 677 970 668T983 657V602Q983 595 987 585T997 564T1007 542T1014 522Q1017 507 1018 496T1020 475T1021 453T1021 427V389Q1021 387
1018 374T1014 353Q1012 347 1010 338T1007 320T1004 305T1002 298Q1000 295 994 286T981 267T967 248T958 237Q958 236 955 230T947 217T939 203T934 194Q921 176 905 161T874 128Q865 116 862 111T849 97Q835 86 823 80T799 61Q799 59 795 51T789 43Q787 42 782
41T771 39T759 38T751 36Q745 33 730 27T697 13T664 -2T642 -14H583Q495 -14 410 17L398 24Q396 27 393 30Q387 36 386 36Q385 37 381 38T371 40T361 42T355 43Q319 51 291 70T238 113T191 163T142 213V216ZM374 157Q372 154 372 149Q372 141 377 135T390 125T404
116T417 109Q427 101 437 92T459 74T483 60T510 54Q521 52 531 51T552 50Q561 50 569 51T586 54L605 61L633 62L661 61Q663 62 666 63Q670 64 673 67Q676 69 681 71T691 77Q696 81 702 85Q704 86 709 91T721 103T732 114T739 121L758 133Q765 140 776 152T797 179T814
208T823 232Q824 235 825 241T828 254T829 266T830 273Q836 330 836 384Q836 427 830 469Q826 475 826 482T825 497V521Q825 531 823 536Q822 548 813 557T799 578Q791 596 787 611T775 645Q774 647 773 650Q772 653 770 657L751 689Q751 690 749 700T746 713Q725
742 694 756T630 785Q627 787 620 789T611 791H569L538 798H477L441 780Q430 775 422 774T405 766Q388 755 372 743T337 718Q336 718 336 717T333 715Q331 714 330 713Q330 711 330 707T328 697T327 688T325 682L313 670Q310 666 307 659T299 644T293 630T289 621V592Q288
590 286 584T282 572T279 561T277 554V545L289 486Q289 475 283 468T277 448Q277 416 287 393T301 341L313 232L325 213Q326 212 328 206Q329 203 330 201L374 157Z" />
<glyph unicode="p" glyph-name="p" horiz-adv-x="879" d="M84 33Q84 51 93 60T116 73T144 80T170 86Q202 128 212 182T222 292Q222 329 221 364T219 431V452Q219 456 220 471T222 504T225 537T227 557Q227 560 226 570T223 591T220 612T219 625Q218 632 217 652T215
696T211 740T208 770Q197 789 180 802T145 828T116 852T103 882V894Q103 901 104 906T113 913Q140 922 172 928T237 937T301 942T360 943H381Q385 941 397 937T411 932H468Q470 932 476 931T490 929T505 925T516 922Q571 909 629 897T739 856Q743 851 752 838T773
809T793 779T807 759Q808 757 811 750T815 740Q816 737 818 724T824 694T829 661T833 635Q833 634 834 633Q836 631 836 628Q836 616 830 596T814 554T792 515T769 490Q766 488 756 482T734 470T713 459T701 452Q699 451 693 447T681 438T668 429T660 424Q659 423
655 422T647 418T638 415T634 413Q630 412 623 409T615 403H561Q540 403 524 403T492 404T459 407T419 413Q411 410 406 406Q393 399 393 394V230Q401 217 402 207T404 183Q404 166 399 151T393 119V116Q396 111 406 100T419 86Q431 86 447 88T481 90Q507 90 527
82T547 47Q547 33 537 17T509 0H141Q137 0 128 2T109 9T92 20T84 33ZM393 481Q395 478 401 471T411 462H416H419Q421 462 427 463T440 466T453 469T461 471H478H535H547Q550 471 558 476T575 487T592 499T604 510Q605 511 606 516T608 528T611 541T615 548Q617
557 621 564T631 577T640 591T644 609Q644 613 642 619Q641 622 641 625Q640 637 638 656T632 696T626 731T622 749Q617 770 606 785T579 812T545 832T509 846H502Q480 846 453 843T400 827Q402 814 402 802T402 777Q402 718 398 661T393 541V481Z" />
<glyph unicode="q" glyph-name="q" horiz-adv-x="1151" d="M1140 -270Q1132 -266 1112 -258T1068 -240T1025 -223T996 -211Q993 -211 986 -210T971 -208T955 -205T947 -202Q945 -202 941 -199T932 -193T923 -186T918 -183Q916 -182 913 -181T907 -177L899 -173H851H832Q827
-173 816 -165T802 -154Q738 -122 669 -101T531 -57Q507 -49 484 -38T437 -19Q434 -18 421 -14T394 -5T367 4T351 10Q348 11 342 13T329 19T318 25T313 29Q311 30 306 34T297 43T288 52T283 57Q281 59 274 62T264 67Q262 68 254 75T234 91T212 110T195 125Q177
142 163 170T136 221Q114 265 97 308T79 401V424Q80 427 83 437T89 458T95 479T98 491Q100 501 103 525T109 578T114 630T117 664Q131 674 140 687T155 715T168 744T185 770Q187 772 192 776T204 785T215 794T223 799Q227 802 238 805T252 808Q255 810 263 817T282
832T301 848T313 856Q337 876 361 887T418 905H444Q463 911 478 917T507 929T538 939T576 943H581Q619 934 652 932T726 924Q771 917 818 890T908 824T983 741T1034 654Q1035 652 1036 646T1039 631T1042 616T1043 607Q1044 603 1047 593T1053 578V477Q1053 430
1052 394T1044 324T1021 260T975 192Q969 185 953 166T918 126T884 85T861 57Q870 42 886 31T921 13T960 2T999 -2Q1006 -2 1012 -2T1024 0Q1025 -2 1028 -5T1034 -10Q1038 -13 1051 -19T1080 -33T1109 -47T1129 -57Q1130 -58 1135 -59T1145 -62T1154 -65T1159
-67Q1175 -77 1188 -87T1215 -106T1243 -120T1276 -126Q1280 -126 1284 -126T1293 -125Q1337 -145 1379 -170T1466 -211Q1469 -213 1477 -215T1495 -221T1513 -226T1525 -230Q1526 -231 1531 -232T1543 -235T1556 -238T1563 -240Q1564 -241 1568 -244T1577 -250T1586
-257T1591 -260H1608H1650Q1652 -260 1659 -263T1669 -270Q1672 -272 1677 -276T1689 -284T1701 -293T1707 -298H1871Q1877 -298 1887 -295T1907 -286T1926 -277T1939 -270Q1982 -253 2024 -239T2112 -211Q2132 -206 2151 -198T2193 -190Q2193 -219 2183 -242T2158
-284T2122 -321T2082 -356Q2068 -370 2048 -382T2006 -404T1962 -421T1920 -433H1911H1890Q1861 -439 1831 -450T1771 -462Q1742 -462 1705 -457T1639 -443Q1637 -442 1629 -440T1612 -435T1595 -429T1582 -424Q1581 -422 1573 -418T1563 -413H1525Q1524 -413 1517
-410T1505 -405Q1475 -387 1450 -381T1390 -365Q1386 -364 1378 -362T1360 -357T1343 -351T1332 -346Q1330 -345 1324 -343T1312 -337T1300 -331T1293 -327Q1291 -326 1284 -325T1269 -323T1253 -320T1245 -318Q1243 -318 1239 -314T1230 -304T1222 -295T1217 -289Q1216
-288 1210 -287T1198 -284T1185 -281T1178 -279Q1176 -279 1164 -275T1150 -270H1140ZM351 202Q368 179 389 164T435 136T483 112T531 86Q533 86 537 83T547 77T556 70T562 67Q563 67 575 67T595 66Q609 66 621 69T644 77T666 84T690 88Q694 88 698 88T707 86L832
211L842 232Q840 240 840 260T840 303Q840 326 840 346T842 375Q842 378 843 391T846 418T849 446T851 462V472V481Q849 487 848 498T845 520T843 539T842 548Q840 550 832 558T821 567Q820 570 817 581T811 606T806 630T802 645L798 653Q794 661 794 664Q791 670
785 681T772 702T760 721T754 732Q754 734 751 737T745 740Q744 741 740 742T730 745T721 748T716 751Q707 757 698 766T680 784T662 799T640 808H622H581Q578 810 567 814T553 818H537Q518 818 493 808T441 782T393 748T358 713Q336 683 326 649T311 577T303 503T290
432V429Q290 412 295 397T306 368T320 339T332 308Q332 303 334 288T340 256T346 224T351 202Z" />
<glyph unicode="r" glyph-name="r" horiz-adv-x="989" d="M67 43Q67 45 72 54T79 66Q93 84 117 91T164 99Q171 99 176 99T188 97Q199 105 206 116T219 140Q218 144 217 153T216 175Q216 186 217 196T219 211Q221 227 229 240T237 270V279L225 303V332Q222 359
217 386T212 443L225 516L223 554Q223 558 223 562T225 571Q227 587 228 603T230 635Q230 651 229 666T225 699Q223 710 223 722T219 746Q211 761 200 774T176 798Q164 808 150 810T122 814T95 821T74 841Q73 842 73 844Q72 845 72 848Q72 857 77 862T90 871T107
875T122 877H164Q178 879 193 885T225 891Q227 891 232 891T237 889Q238 889 248 883T261 877H302L368 872Q370 870 376 870T385 870Q401 870 411 873T439 877Q475 877 513 874T588 860Q612 853 634 849T675 838T712 820T745 787Q757 769 764 758T776 735T781 709T782
671Q782 651 777 633T756 599Q753 596 745 587T727 569T709 550T697 538Q693 538 684 536T673 531Q671 530 664 527T648 520T632 513T624 509Q619 507 613 506T600 504T590 499T586 488Q586 475 590 461T600 433T616 407T635 388Q637 386 644 381T654 375L660 368Q662
367 669 357T680 344Q680 344 684 340T693 330T702 320T709 313Q710 311 715 301T726 278T737 256T745 242Q746 240 751 233T762 217T776 200T787 187Q798 174 810 165T835 145L884 109L946 102Q950 101 959 97T976 87T991 73T998 57Q998 53 993 44T981 25T965
8T949 0H866Q855 9 834 13T799 19H726Q686 33 667 60T635 126Q635 128 632 135T617 157L610 187Q610 189 609 193T605 199Q599 208 589 223T568 255T549 282T539 296L467 375Q453 389 435 398T399 407Q395 407 392 406T387 400Q387 397 388 392T389 379Q389 372
388 366T387 358L382 332V261Q382 259 380 248T375 232Q375 211 380 198T394 164L387 133Q387 115 400 111T429 105T458 95T472 62Q472 47 464 40T443 29T418 26T394 24H278Q273 23 260 22T231 19T201 15T181 12Q170 4 165 2T150 0Q134 0 125 6T103 19Q102 19 94
20T84 24Q80 27 74 34T67 43ZM363 599Q365 596 366 586T368 574Q371 565 372 554T375 532T381 512T394 497Q412 483 426 478T467 472Q469 472 475 474T484 477L539 514Q545 518 554 521T571 530T585 541T593 555Q593 557 594 565T596 582T598 602T600 618V625Q600
670 584 713T532 787Q521 798 510 807T481 817H467L406 811Q380 793 374 770T368 716V642Q368 639 367 626T363 605V599Z" />
<glyph unicode="s" glyph-name="s" horiz-adv-x="712" d="M73 142Q73 151 74 160T78 178T86 192T101 197H109Q126 191 138 179T158 149L163 125Q165 123 169 119T177 112L187 106Q189 104 194 94T201 81Q203 80 207 76T213 69Q218 71 223 71T234 71Q245 71 257
68T279 57Q290 55 301 54T324 52Q335 52 347 53T371 57Q381 59 395 75T423 111T445 151T455 180V192Q455 196 454 204T453 222T451 237T450 246Q448 247 443 254T438 265Q434 271 432 279T427 294T420 308T407 318Q405 320 398 322T390 325Q388 325 380 333T371
343Q369 345 364 348T353 355T342 362T334 367Q333 368 328 371T316 377T305 382T298 386Q295 388 285 395T274 405Q253 419 238 426T209 441T184 460T158 495Q155 501 149 510T137 529T127 547T121 557Q120 559 118 568T115 581V702Q115 703 117 711T122 732T128
756T134 775Q137 789 141 795T152 806T165 813T182 823Q185 826 194 835T213 854T232 874T243 886Q249 891 262 893T279 898Q309 907 337 911T397 915H426Q432 915 446 915T477 913T507 912T528 910Q537 907 549 898T574 876T594 850T602 823Q601 822 599 812T597
799V751Q596 749 595 743T591 728T587 713T583 702Q582 697 578 696T568 695H547Q542 697 539 702T532 714T527 725T523 734Q521 735 517 739T509 748T500 757T493 765Q492 765 487 766T480 770Q474 773 471 778T466 790T460 802T450 813Q446 814 436 818T414 825T391
832T376 837H346Q343 834 336 828T321 813T307 799T298 789Q285 772 282 747T279 702Q279 685 283 671T295 644T313 619T334 593Q343 581 353 577T375 570T398 566T419 557Q420 556 425 551T437 541T448 532T455 526Q457 524 462 521T474 514T485 507T493 502Q495
500 505 496T518 490Q518 488 521 483T535 458L583 410L602 398Q616 387 618 367T621 329V265Q616 256 616 247T615 228V197Q615 193 612 184T608 173Q608 172 606 169T600 161T594 154T590 149Q589 146 587 136T583 125L578 106Q575 102 567 92T548 72T530 52T518
40Q515 37 508 33T499 26Q497 26 491 26T478 24T464 22T455 21Q443 18 431 13T407 1T383 -10T358 -16Q357 -16 340 -16T312 -17L267 -16Q263 -14 252 -10T237 -3Q225 1 213 3T188 6T163 11T139 21Q127 27 115 38T94 64T79 93T73 123V142Z" />
<glyph unicode="t" glyph-name="t" horiz-adv-x="1049" d="M526 12Q515 12 508 9T495 3T481 -4T464 -7Q453 -7 443 -4T420 0Q397 -4 378 -8T339 -12H318Q314 -7 314 -4T313 5Q313 14 316 24T324 42Q325 43 328 46T336 53T344 60T350 66Q362 76 373 79T395 84T419
92T445 114Q446 116 449 120T452 126V216Q444 236 439 259T434 303V313L445 351Q445 352 444 356T440 365T436 374T434 381V400L441 453Q441 462 438 468T434 483L452 519Q452 521 446 531T436 543V652L427 671V780Q427 790 417 793T392 798T362 800T337 803Q335
804 321 810T296 817Q284 817 277 812T262 801T247 788T228 780Q226 779 218 778T201 777T184 775T175 773Q173 773 170 772T164 770L156 768Q152 764 143 755T132 744Q130 741 128 731T126 720L113 706L105 704Q102 703 99 702T95 701Q92 699 86 693T73 681T59
668T50 659Q41 659 35 665T23 676V720Q23 737 24 764T32 818T53 864T95 884L161 875Q168 875 179 876T192 877Q194 877 204 879T246 882Q271 885 296 889T346 894Q360 894 373 891T401 887L462 894H476Q483 894 489 892T500 882H573Q574 882 584 884T597 889H609Q615
888 627 887T650 884T671 883T682 882L694 877Q696 876 698 876Q700 875 702 875Q718 875 729 885T753 901Q761 903 775 908T791 913H881Q883 911 890 909T900 907H943Q944 907 947 904T955 895T964 885T971 877Q988 856 995 839T1002 792Q1002 790 1000 783T995
773V676Q995 672 991 672T984 671Q978 671 975 671T965 676L917 706Q914 709 905 717T884 734T863 751T850 761Q850 763 842 768T832 773L808 792Q805 794 798 797T785 803T773 808T766 810H670Q668 809 665 807Q659 803 658 803Q653 800 644 795T625 785T607 774T597
768Q592 766 591 763T590 758V744Q590 741 593 737Q595 734 597 732Q605 695 610 662T621 592Q626 555 632 520T638 448V351Q639 348 640 338T642 315T644 291T645 277L638 192Q638 184 638 171T641 144T649 118T663 102Q667 101 677 98T699 91T721 84T735 78Q755
71 764 63T773 33Q773 18 766 8T748 -8T724 -16T697 -19H682L663 -7H616Q613 -6 603 -4T582 2T561 8T549 12H526Z" />
<glyph unicode="u" glyph-name="u" horiz-adv-x="1149" d="M198 268Q198 271 197 284T194 312T190 342T186 365V377L198 413V548Q194 556 194 559T193 567V590Q188 635 176 676T150 761Q139 773 124 781T101 803Q94 817 82 825T57 839T36 850T27 865Q27 886 44
891T82 896H113Q115 896 122 898T132 901Q135 902 143 903T162 905T180 906T193 907H205Q210 907 214 907T222 908Q229 908 240 908T254 907L333 901Q336 901 349 902T379 906T408 911T425 913H427Q450 913 465 898T480 862Q480 845 468 835T438 818T401 806T369
792Q366 788 361 782T351 770T342 760T338 754Q338 754 337 749T335 737T334 725T333 718L326 694V505L333 481V389Q335 371 340 356T345 324L338 256Q340 254 342 249T345 244Q347 241 352 235T365 223T378 210T387 201Q388 201 393 198T401 194Q403 192 411 186T430
173T449 160T461 152Q479 140 495 135T527 128T562 125T601 121Q615 119 628 114T655 109L693 116L741 109Q767 118 783 131T821 164Q835 177 835 197Q835 204 836 211T840 232Q846 242 849 252T854 271T859 291T869 310V398Q869 425 878 449T888 503Q888 514 888
523T885 547Q885 569 884 587T882 625T880 668T878 725Q873 738 869 754T850 778Q849 779 844 782T834 788T823 793T814 798Q802 804 781 808T738 820T702 838T686 867Q686 886 695 897T718 913T750 919T783 920H826L857 913H1004Q1006 912 1015 910T1029 907Q1033
906 1046 905T1073 901T1101 898T1119 896Q1129 892 1130 885T1132 870V867Q1132 857 1129 852T1120 842T1108 833T1094 822Q1091 819 1082 810T1062 789T1042 768T1029 754Q1017 743 1002 725T985 689L966 517Q959 506 959 491L961 462Q960 460 959 452T958 435T956
418T954 407Q952 366 952 333T948 269T932 209T894 145L869 121Q866 118 859 110T844 93T828 77T816 66Q808 66 797 65T783 61Q781 59 776 54T765 42T754 30T747 24Q745 23 741 20T730 14T719 9T710 5Q709 4 704 3T692 2T681 1T674 0Q672 -1 664 -3T647 -9T630
-15T619 -19Q612 -20 605 -20Q599 -21 593 -21T584 -21Q552 -21 530 -13T480 0H442Q422 2 401 9T363 24Q357 27 347 31T328 41T311 49T302 54Q301 55 297 61T287 74T278 88T273 97Q257 115 242 131T217 170L198 268Z" />
<glyph unicode="v" glyph-name="v" horiz-adv-x="917" d="M242 458Q240 461 235 470T230 481Q228 485 227 496T225 510Q223 513 215 522T207 533Q206 534 205 539T202 550T199 561T197 567Q196 568 194 573T188 584T183 595T180 602Q170 618 168 635T161 670Q153
697 146 724T128 777Q126 781 119 784T110 789Q95 795 76 799T40 811T12 830T0 865Q0 883 14 892T46 901H58L83 898H109Q118 898 127 897T145 891Q152 891 169 892T207 893Q227 893 244 892T269 891Q270 891 276 891T289 889T303 887T314 886Q317 886 326 884T337
879Q344 878 354 878T373 876T388 869T394 853Q394 833 384 825T361 806Q356 802 349 795T333 779T320 763T314 749Q314 733 323 717T337 685Q340 679 345 668T354 647T362 628T365 619Q366 617 367 611T369 599T370 586T372 578Q373 576 377 567T382 555Q384 551
389 538T394 522L399 488Q406 465 416 443T434 396Q435 395 436 389T440 376T443 361T446 351Q449 340 450 330T454 312T465 299T486 294Q497 294 506 295T526 304Q528 309 534 319T546 342T558 365T565 381Q566 382 567 391T571 410T574 430T576 441Q582 467 596
488T622 533Q622 535 624 541T628 550Q628 551 629 558T633 573T637 587T640 595Q640 598 641 602T645 607Q645 609 650 610T657 612Q657 613 657 618T658 628T660 637T662 642Q664 654 668 668T678 697T686 726T690 753Q690 766 689 772T685 782T675 788T657 794Q634
802 616 816T598 855Q598 860 599 863Q599 866 600 868Q602 873 612 881T628 891Q629 891 632 892Q634 892 636 892T640 893L714 886Q726 886 731 888T740 892T747 896T757 898Q766 898 775 893T792 886H884Q887 886 892 886T904 884T915 882T923 879Q928 877 929
873T930 865V860Q930 842 917 829T885 804T846 783T814 761Q796 743 788 718T771 670Q769 668 764 659T759 647L754 612Q751 611 741 607T730 602Q728 601 724 591T716 568T707 544T700 528Q699 523 696 512T690 498Q688 497 684 488T678 476L674 431L662 408Q660
407 659 397T657 384Q653 373 645 365T633 344Q633 344 632 339T631 329T629 318T628 311Q626 310 622 303T617 294Q608 281 607 271T600 244Q599 242 597 238T593 229T590 220T588 215Q583 203 580 191T571 168Q569 168 565 161T560 152Q559 150 557 143T551 127T546
112T543 102Q543 100 537 93T531 85Q529 81 528 78T526 73Q525 71 524 65T522 52T521 39T520 31Q519 31 513 24T505 12Q500 2 496 -4T486 -15T472 -22T451 -24Q438 -24 422 -16T399 3Q399 5 398 9T396 18Q395 23 394 31Q394 33 392 38T386 50T380 61T377 67Q370
81 370 90T365 118Q357 156 344 193T314 265L297 301Q297 302 297 307T295 318T294 329T292 336L290 340Q289 342 287 344Q285 347 278 356T269 367Q265 377 264 386T262 404T256 420T242 431V458Z" />
<glyph unicode="w" glyph-name="w" horiz-adv-x="1282" d="M344 156Q323 187 316 216T304 273T291 329T261 386L242 465V502Q242 502 239 507T232 520T224 533T218 543L199 567V616Q199 619 196 625T188 639T181 652T177 659Q162 682 155 711T137 763Q132 775
128 781T115 791T94 795T59 801Q45 803 34 809T23 829Q23 849 31 862T47 889L97 898H116Q143 889 173 883T232 877Q255 877 273 884T313 891Q316 891 323 891T338 889T353 887T362 886Q372 878 385 874T398 855Q398 843 394 829T381 803Q374 795 359 788T339 773L341
742Q342 731 344 716T350 685T356 657T362 637L382 616Q391 598 395 578T403 538T409 497T417 458L448 403Q451 396 453 384T458 359T466 339T483 330Q494 330 502 338T516 358T527 381T535 398Q535 400 543 407T554 417Q566 432 570 452T579 493T591 532T619 562L621
602Q621 610 620 625T619 642L607 671Q603 682 603 693T600 718Q599 727 598 738T593 758Q585 776 572 780T543 788T514 800T491 834V843Q491 852 493 862T500 875Q511 882 529 883T564 884H595Q596 884 603 882T619 878T637 874T652 872L728 891L810 877Q819 877
827 880T848 884Q871 884 884 874T898 839Q898 814 882 805T844 793T799 787T763 773V759Q763 749 766 743T774 732T783 720T789 702V642Q789 638 795 615T811 560T830 491T850 423T866 371T874 349Q879 344 882 344T889 343Q896 343 900 343T912 349Q912 351 913
355T917 363Q924 382 934 400T956 437T978 474T995 512Q996 513 996 518T998 528T999 537T1000 543Q1009 566 1016 581T1029 616L1035 659Q1041 670 1048 681T1063 703T1075 727T1080 754Q1078 776 1067 786T1042 802T1013 812T991 825L986 846Q986 862 1002 877Q1003
881 1008 883T1036 886Q1044 886 1049 886T1059 886T1071 884T1088 882Q1120 882 1141 884T1183 889Q1188 889 1201 888T1216 886L1266 887Q1284 887 1289 882Q1293 877 1298 876T1304 868V858Q1304 840 1300 830T1291 815Q1284 808 1268 802T1234 790T1200 775T1176
753Q1157 725 1145 699T1121 647T1099 595T1073 541Q1064 525 1056 510T1040 480T1029 449T1024 412L1010 394Q1010 388 1008 379T1003 359T996 340T988 327L974 292L943 227Q934 207 930 194T921 168T910 143T889 112Q879 97 876 83T869 57T854 40T822 33Q804
33 796 36T782 45T772 60T758 81Q760 88 760 94T760 107Q760 129 755 148T744 187T731 225T723 266L716 337Q714 347 707 367T689 408T669 444T651 460Q640 460 631 454T619 441Q619 440 617 436T613 426T609 417T607 410Q596 367 580 335T545 266L528 240Q528
239 526 234T523 227Q523 225 522 219T520 206T517 193T514 185Q514 183 506 173T497 161Q488 140 485 115T474 67T450 31T400 16Q384 16 373 20T358 47L344 156Z" />
<glyph unicode="x" glyph-name="x" horiz-adv-x="971" d="M74 24Q71 26 67 31T61 42Q61 43 63 45T67 48Q74 53 84 59T105 71T127 82T146 92Q184 109 211 137T267 195Q270 195 277 200T286 206Q289 209 296 216T311 231T325 246T335 256Q341 263 342 274T347 292Q348
293 350 294L354 298Q362 304 373 313T395 334T413 358T421 381Q421 400 407 412T383 438Q382 440 380 446T375 460T370 473T366 481Q359 495 354 498T335 512Q332 514 326 519T313 532T300 545T292 554Q292 555 287 563T279 573L262 592L255 626Q255 628 250 636T243
645Q243 647 241 654T238 664Q233 676 228 682T218 693T208 702T195 713Q193 714 186 721T170 736T155 751T146 761Q140 767 131 769T113 773T95 777T79 785Q75 788 68 795T61 804V853L63 855Q66 858 67 858L86 870Q87 873 91 875T98 877Q121 879 145 880T195 881Q220
881 243 881T292 877Q296 875 308 873T323 870Q326 870 339 870T368 868T397 867T414 865Q445 862 445 834Q445 820 437 810T420 789T403 768T395 742Q395 725 402 708T420 676L458 640Q458 639 458 634T460 622T461 610T463 602L487 578Q489 578 492 577T503 576Q507
576 512 576T523 578Q524 579 529 580T539 581T549 583T554 585Q556 585 560 589T567 597L579 633Q588 656 599 672T610 716V737L603 749V785Q603 788 596 792T579 803T562 821T554 851Q554 855 555 860T561 865Q580 863 599 863T636 863Q654 863 672 863T707 865Q729
874 757 875T811 877Q812 876 818 874T831 870T845 867T854 865L871 867L890 865Q892 865 899 858T907 846Q909 846 909 841Q909 826 897 817T869 802T836 792T811 780Q769 748 729 712T658 633Q645 615 637 590T615 548Q614 547 611 544T603 536T596 527T591 522Q587
518 587 516T586 509V481L591 469Q593 461 594 448T603 426Q604 425 607 422T615 414T622 406T627 401Q630 399 637 390T646 377L663 341Q664 339 668 335T676 325T683 316T688 310Q696 299 699 282T712 256Q713 255 716 252T724 246T731 241T736 237Q743 232 746
226T750 213T753 200T760 189Q765 186 771 182L779 176Q786 171 788 169T793 163T797 156T804 145Q817 131 833 120T864 97Q867 95 871 91T878 85Q878 83 879 79T883 73Q887 70 898 63T914 54Q914 52 915 50Q915 48 915 47T916 45Q916 36 908 31T890 22T868 18T849
17L774 24Q757 24 744 21T715 17Q704 17 699 19T690 23T679 27T658 29L563 22Q552 22 547 30T541 48Q541 62 550 70T569 84T589 98T598 118Q598 132 587 148T567 176Q566 177 564 182T558 192T552 201T548 206Q547 208 543 212T533 222T524 231T518 237Q515 243
515 250T514 265T511 277T499 285L473 287Q470 287 463 287T447 286T431 284T420 280V261Q417 246 408 234T389 210T372 185T364 152Q364 151 364 149T366 145Q366 144 368 134T371 121V97Q371 95 373 94T378 92Q384 87 393 84T412 76T427 65T433 50Q433 36 424
28T401 17T373 13T347 12H323Q261 14 198 15T74 24Z" />
<glyph unicode="y" glyph-name="y" horiz-adv-x="916" d="M476 12Q471 12 464 12T451 12T439 12T433 10Q417 9 401 3T367 -3H357Q355 -3 348 -1T333 3T317 8T305 10Q305 12 297 14T286 17Q284 18 279 18T266 20T254 21T248 22Q239 27 239 40Q239 44 240 47T241
52Q241 69 251 80T277 97T309 108T338 116Q360 118 368 124T377 157Q377 167 374 177T371 199Q371 218 380 235T390 273Q390 280 387 285T381 296T374 306T371 320Q371 328 374 337T377 356V358Q376 360 376 360Q373 371 369 385T359 414T349 443T338 469Q329 486
316 499T293 526Q274 555 258 583T222 637Q220 638 216 642T208 650T201 658T196 663Q195 665 194 671T193 683T191 695T189 702Q185 705 181 709L170 720Q167 723 156 731T133 750T109 770T92 785Q90 787 80 794T66 806Q54 814 42 818T19 827T2 840T-5 867Q-5
879 2 886T21 896T45 899T70 900H92Q96 900 105 900T124 898T142 897T153 896Q154 894 161 892T170 889Q171 889 177 890T191 892T205 894T213 896H232Q252 896 269 889T305 882L358 889Q367 889 377 888T396 882T410 871T416 853Q416 847 406 834T383 807T361
779T350 759Q350 750 354 742T365 725T377 709T388 694L421 637Q421 635 422 628T424 612T425 595T426 583L448 559Q454 549 456 540T461 522T467 508T480 497Q482 495 488 492T500 484T511 478T518 474H542Q542 495 547 510T561 538T579 564T601 592Q606 599 612
616T625 652T635 690T639 720Q639 747 627 767T601 811Q599 814 597 821T595 830Q595 847 601 856T621 874Q628 880 633 882T646 884L673 882Q674 882 678 883T688 885T698 888T704 889Q706 889 718 887T737 882Q738 882 741 881T750 878L762 874Q776 872 791 871T820
870Q834 870 847 871T874 874Q877 870 883 866T896 858T907 848T912 836Q910 834 908 831Q904 825 903 823L898 818Q895 816 884 811T859 799T835 786T822 778Q821 778 817 774T809 766T800 757T794 753Q794 751 790 748T780 742T769 737T762 734Q751 724 746 714T730
694Q729 692 718 685T704 676Q704 675 700 664T692 649Q690 647 689 637T685 625Q684 623 680 618T670 608T660 598T653 592Q642 578 641 559T635 526Q634 524 632 519T626 508T619 497T613 490Q613 488 610 484T602 474T594 463T589 457Q587 455 585 447T583 436Q582
428 582 421T582 407V382Q582 371 581 362T575 339Q572 334 569 330Q567 326 565 324T563 320Q558 308 558 298T557 277V263Q558 257 559 245T561 220T562 197T563 183Q564 182 566 176T570 166Q571 163 575 156T584 141T594 126T601 116Q608 106 619 100T641 87T660
73T668 52Q668 35 663 26T648 12T627 4T601 -3L589 -9L563 -3Q560 -2 553 0T537 4T521 8T512 10Q511 12 497 12T476 12Z" />
<glyph unicode="z" glyph-name="z" horiz-adv-x="933" d="M531 29L427 16Q406 16 388 25T347 35Q323 35 297 32T244 28Q230 28 220 28T199 30T179 32T155 36L131 40Q117 45 105 59T93 90V102L159 168L190 220Q194 226 197 227T204 229T210 230T219 239Q231 254
237 270T252 301Q266 321 273 341T282 381Q304 398 322 413T356 445Q370 459 382 472T405 500Q411 520 417 538T432 573Q436 583 447 593T465 614Q472 625 471 635T479 654L510 668Q512 670 516 679T524 701T531 724T534 740Q543 747 545 763T548 789Q548 795 543
800T530 808T514 814T500 817Q486 818 474 819T449 820L399 817Q380 806 353 806H282Q256 804 231 790T183 757T140 718T103 685L93 683Q84 683 79 694T72 714L155 889Q157 893 161 899T171 910H180Q190 907 195 904T204 897T212 891T223 884Q260 879 286 878T344
877Q369 877 388 885T429 893Q490 881 550 875T674 867Q699 867 719 874T763 881Q770 881 782 880T805 874T824 863T832 844L830 837Q809 810 791 778T752 720Q727 692 711 664T683 600L617 536L600 495L558 453Q542 438 532 422T515 390T500 356T482 322L453 289Q444
268 431 252T406 221Q395 204 390 187T375 151Q374 150 374 148Q373 147 373 145V144Q373 119 391 111T430 102Q455 98 487 96T545 93Q611 93 667 114T771 178Q783 190 789 198T802 213T816 226T840 239Q845 239 854 233T865 221Q865 215 863 204T856 185Q854 144
849 106T835 28Q824 9 804 6T759 3Q728 3 699 7T642 16T587 25T531 29Z" />
<glyph unicode="{" glyph-name="braceleft" horiz-adv-x="839" d="M440 -167Q440 -160 440 -149T441 -127Q441 -115 442 -101L537 87V106Q537 166 515 222T442 317Q433 324 418 335T387 356T361 375T348 384L80 479Q66 484 65 493T63 511Q63 534 78 546T116 566T161
576T201 585Q223 593 254 605T318 632T383 666T441 707T482 756T498 812Q498 848 495 889T483 962Q475 993 463 1021T440 1078T422 1135T414 1199Q414 1254 434 1308T490 1405T575 1476T684 1503Q703 1503 724 1501T764 1492T795 1470T807 1431Q807 1426 807 1417T805
1406Q793 1378 769 1367T715 1352T654 1346T596 1334T554 1302T537 1234Q537 1175 556 1122T598 1017T640 912T659 800Q659 780 658 767T645 735Q608 688 570 656T489 602T398 563T295 532Q292 530 288 526T281 520V511Q281 498 311 485T385 455T482 413T579 355T654
273T684 161Q684 114 672 73T642 -7T603 -86T563 -169Q563 -170 562 -178T558 -196T554 -217T551 -234Q551 -236 550 -238T549 -242L551 -248Q552 -256 554 -269T558 -294T561 -317T563 -328Q563 -330 568 -335T577 -343Q581 -345 589 -349T606 -358T622 -366T631
-369Q639 -371 660 -375T704 -384T749 -391T778 -396Q801 -404 804 -418T807 -449Q807 -483 789 -507T733 -531Q690 -531 647 -514T567 -469T501 -404T457 -328Q450 -311 447 -290T442 -248T440 -205T440 -167Z" />
<glyph unicode="|" glyph-name="bar" horiz-adv-x="496" d="M207 -427V-365Q207 -287 205 -210T197 -57Q195 -25 190 8T185 80L202 125Q202 140 194 152T185 185Q189 233 190 271T191 346Q191 372 190 401T186 460V562Q177 599 173 633T169 699Q169 738 172 774T185
853Q183 857 178 870T171 893L185 943Q185 954 178 969T171 1003L178 1119L162 1462Q162 1471 165 1485T185 1502Q199 1504 209 1505T230 1507Q249 1507 260 1502T283 1493Q283 1489 285 1473T288 1448Q291 1448 293 1438T297 1417V1396L307 1349L281 1211L297
1088L288 1043Q292 1028 294 1020T298 1007T300 1000T300 996Q300 981 298 975T288 958Q295 950 300 925T310 870T316 813T318 775L297 633Q297 620 300 606T307 578T314 550T318 524Q318 508 315 491T308 457T301 424T297 393Q297 364 305 333T313 270L307 232Q307
202 307 186T307 161T306 150T306 144Q309 139 314 115T326 63T336 9T340 -26L325 -85Q325 -103 328 -112T332 -131L311 -273Q311 -299 317 -321T325 -375Q314 -378 314 -393V-396Q314 -405 313 -416T306 -437T288 -453T254 -460Q237 -460 227 -455T207 -427Z"
/>
<glyph unicode="}" glyph-name="braceright" horiz-adv-x="844" d="M16 -450Q16 -448 16 -445T17 -438Q17 -434 18 -431Q35 -401 62 -388T119 -368T179 -359T234 -347T274 -317T289 -255Q289 -202 279 -146T248 -40Q234 -7 222 17T199 65T184 114T178 173Q178
210 189 239T219 292T263 336T315 378Q326 381 354 390T415 409T475 429T516 443Q519 444 527 448T543 456T559 465T569 472Q563 481 552 487T530 499Q483 518 435 534T343 572T260 623T193 699Q189 706 183 718T170 744T159 767T154 781Q153 781 153 786T152 797T152
811T152 822Q152 882 173 936T220 1042T267 1149T289 1263Q289 1304 270 1323T222 1350T160 1361T98 1370T50 1393T31 1445Q31 1466 39 1480T61 1504T93 1517T133 1521Q186 1521 225 1497T301 1439Q334 1410 355 1378T388 1310T405 1235T410 1152Q410 1104 395
1071T362 1006T328 940T313 855Q313 801 336 760T394 687T473 628T557 579Q578 567 614 558T688 539T753 521T784 499Q788 486 778 474T751 450T712 429T670 411T633 398T610 390Q569 375 532 358T460 318T397 267T342 202Q339 199 335 189T328 175V169V161Q330
145 334 119T343 67T351 22T354 1Q355 -3 361 -15T374 -40T387 -66T395 -81Q402 -96 405 -106T410 -125T411 -146T410 -175Q410 -180 410 -189T410 -206T410 -220T408 -228Q407 -240 404 -261T396 -305T388 -344T381 -364Q379 -369 366 -383T335 -415T300 -447T274
-470Q269 -474 258 -480T234 -493T209 -505T193 -511Q192 -511 186 -511T171 -512T155 -512T141 -513Q124 -513 103 -512T62 -504T29 -485T16 -450Z" />
<glyph unicode="~" glyph-name="asciitilde" horiz-adv-x="1120" d="M172 497Q172 519 178 534T196 561T221 585T252 609Q254 609 260 617T269 626Q274 629 283 635T302 648T318 659T326 664H357Q359 664 366 665T383 668T400 672T413 676Q415 676 421 677T433
679T445 682T451 683Q454 683 466 681T494 676T525 670T549 664Q564 660 571 655T585 646T602 638T632 635Q661 635 690 643T748 664T802 695T849 732H895Q902 732 904 721T906 701V695Q906 686 906 681T905 672T902 661T895 645Q882 610 869 589T838 553T795 530T733
510Q715 505 703 500T679 491T654 484T620 481H568Q551 483 538 489T512 503T483 515T446 521Q412 521 382 518T319 500Q305 495 293 486T268 467T241 450T210 443Q202 443 195 448T183 462T175 480T172 497Z" />
<glyph unicode="&#xa0;" glyph-name="space" horiz-adv-x="439" />
<glyph unicode="&#xa1;" glyph-name="exclamdown" horiz-adv-x="543" d="M362 1190Q362 1161 355 1133T324 1086Q321 1086 315 1086T302 1086T288 1085T279 1085Q258 1085 238 1089T202 1103T177 1130T167 1173Q167 1228 191 1254T272 1280H291Q303 1280 315 1278T333
1268Q335 1265 339 1257T348 1239T357 1222T362 1211V1190ZM352 789V768Q352 757 351 730T349 672T346 614T343 576Q333 572 333 559V550Q333 536 337 523T346 496T356 468T362 441V315Q362 313 363 309T366 301T369 292T371 287Q372 282 374 273T377 255T380 238T381
228V147V66Q379 57 373 47T359 27T342 12T324 5Q322 5 316 7T304 11T291 15T283 17Q281 17 274 13T266 5H257H247Q238 12 226 20T203 39T183 60T170 85Q169 88 169 96T168 115T167 134T167 147Q167 153 167 163T167 183T168 200T170 209Q170 213 172 231T178 271T185
312T189 336Q189 340 189 362T188 405Q188 427 189 431Q189 434 190 441T192 455T194 469T196 479V836Q196 843 197 857T201 887T205 915T208 932Q211 946 223 958T252 971H257Q308 936 330 895T352 789Z" />
<glyph unicode="&#xa2;" glyph-name="cent" horiz-adv-x="1058" d="M205 -171Q219 -142 233 -112T263 -47Q270 -33 272 -20T276 -2Q276 9 281 15T291 25T300 35T305 48Q305 72 290 93T254 135T211 173T175 208Q173 237 165 266T147 324T131 381T123 439Q123 452
134 455Q135 467 135 481T135 509Q135 548 139 589T168 666Q170 666 186 684T221 725Q242 751 269 784Q284 828 318 850T393 885T480 905T561 929T622 976T646 1064V1078L663 1095L715 1211Q718 1218 727 1218Q766 1218 788 1204T810 1161V1137L734 941Q734 937
746 927T777 903T818 870T858 829T889 782T902 730Q902 722 895 711T879 688T861 669T846 659Q826 651 812 649T786 647Q768 647 758 652T744 665T738 685T737 711Q737 723 736 734T731 755T717 773T689 787Q678 765 665 735T640 674T616 612T599 561V531Q597 527
595 518T590 507Q571 476 554 444T524 378T502 308T494 234Q494 211 505 199T533 180T569 173T606 171H641L646 183L757 244Q764 247 774 266L874 344Q883 352 887 353T902 355Q923 355 935 342T947 308Q947 294 938 281T916 253T891 224T874 192Q838 162 813 138T761
94T705 59T628 33Q623 32 613 29T590 21T566 13T545 9Q523 9 506 17T469 26Q451 26 435 16T405 -9T383 -41T371 -73V-118Q368 -127 357 -145T332 -183T303 -216T276 -230H269L205 -171ZM340 337Q348 333 353 333T364 332Q391 332 399 343T410 369T416 398T438 419Q442
425 446 448T450 493Q461 515 476 550T506 622T530 695T540 751Q540 762 525 764T492 766H464Q420 766 390 747T341 698T314 629T305 552Q305 531 313 517T322 484L310 434Q310 408 320 386T340 337Z" />
<glyph unicode="&#xa3;" glyph-name="sterling" horiz-adv-x="1418" d="M497 249V282Q497 284 492 288T485 292Q482 293 474 295T457 299T441 303T430 306H296Q273 313 268 322T262 353V370Q262 379 264 387T274 403Q277 406 283 411T296 421T309 431T317 438Q325
440 344 443T384 450T424 456T450 460H476H485Q486 460 491 464T504 473T518 484T530 493Q534 496 542 504T551 514Q555 522 563 538T581 572T597 605T608 626Q609 629 612 642T618 670T625 698T629 714Q630 717 635 727T645 748T656 770T661 782Q664 788 672 812T690
865T708 917T719 948Q719 950 722 955T729 966T736 976T741 983Q761 1023 775 1066T808 1149Q809 1151 812 1156T819 1166T826 1177T829 1183Q832 1188 836 1196T841 1206Q842 1207 843 1215T846 1232T849 1250T852 1259Q854 1262 863 1272T884 1293T906 1314T919
1327Q920 1329 923 1335T929 1349T936 1363T942 1372Q942 1373 947 1378T957 1388T968 1399T975 1406Q976 1407 979 1413T985 1427T992 1441T995 1450Q999 1454 1011 1466T1037 1492T1065 1519T1085 1540Q1087 1541 1095 1544T1106 1550Q1109 1550 1113 1555T1120
1560Q1135 1572 1149 1581T1179 1599T1209 1618T1243 1642Q1273 1653 1300 1657T1352 1661Q1381 1661 1408 1658T1464 1650Q1479 1641 1491 1632Q1502 1624 1512 1617T1530 1604Q1532 1604 1535 1600T1540 1593Q1547 1586 1556 1576T1575 1554Q1586 1542 1597 1528V1505Q1597
1483 1596 1467T1587 1427Q1582 1417 1562 1408T1518 1390T1472 1377T1440 1372Q1417 1372 1399 1383T1364 1408T1331 1434T1296 1450Q1296 1450 1291 1450T1279 1450T1266 1451T1255 1451Q1248 1451 1234 1451T1219 1450Q1217 1450 1213 1447T1203 1440T1192 1432T1186
1427Q1169 1417 1154 1402T1124 1368T1097 1331T1075 1296Q1069 1285 1059 1266T1038 1227T1019 1191T1009 1171Q1001 1157 998 1144T994 1118T991 1091T985 1059Q985 1057 982 1051T975 1038T967 1025T962 1016Q962 1014 961 1006T958 989T955 971T952 960Q951
959 948 954T942 944T935 933T930 927Q905 883 893 840T862 751Q842 696 825 643T807 529V517Q807 509 809 502T819 493H885Q907 493 925 495T960 499T994 503T1033 505Q1044 505 1060 502T1092 493T1119 476T1130 450Q1130 440 1125 429T1111 407T1093 387T1075
370Q1057 372 1040 373T1004 374Q948 374 894 367T784 349Q780 346 771 337T751 317T731 296T719 282Q716 279 708 263T690 227T672 191T661 170Q661 168 656 162T646 149T635 135T629 126Q628 125 627 120T624 110T621 99T618 93Q617 88 609 72T591 38T573 3T561
-17Q560 -20 556 -32T546 -57T536 -82T530 -95Q528 -100 525 -107T518 -121T511 -134T507 -142Q502 -148 495 -154T480 -168T467 -183T461 -202V-205Q461 -208 464 -208Q480 -230 500 -244T551 -263H608H629Q637 -263 650 -263T677 -267T702 -277T719 -296Q725
-297 742 -299T780 -303T817 -306T841 -308H879Q925 -308 962 -304T1029 -288T1084 -251T1130 -185Q1138 -169 1140 -152T1142 -118V-102Q1142 -77 1137 -58T1122 -21T1101 12T1075 48Q1070 55 1062 66T1047 88T1035 107T1030 116Q1029 120 1029 124Q1028 127 1028
130T1028 135Q1028 152 1031 162T1052 173Q1052 173 1058 171Q1060 170 1063 170Q1065 169 1073 164T1091 152T1113 138T1130 126Q1130 125 1135 122T1142 116Q1146 109 1159 91T1186 54T1213 17T1231 -7Q1231 -11 1232 -20T1234 -41T1237 -62T1238 -76Q1238 -82
1238 -93T1239 -114T1240 -133T1241 -144Q1240 -154 1237 -171T1230 -206T1223 -236T1219 -253Q1217 -256 1208 -267T1187 -291T1166 -315T1153 -329Q1149 -333 1141 -346T1130 -363Q1130 -365 1127 -371T1120 -385T1112 -399T1106 -407Q1105 -408 1101 -410T1091
-413T1081 -416T1075 -419Q1072 -419 1063 -424T1042 -434T1022 -445T1009 -452Q1006 -452 998 -454T980 -457T962 -460T952 -462Q950 -464 941 -468T930 -476Q925 -476 905 -475T866 -474Q845 -474 841 -476Q839 -476 833 -477T819 -481T806 -484T798 -486Q795
-485 789 -482T775 -474T760 -467T751 -462H705H686Q648 -453 612 -440T540 -414T467 -393T388 -384Q385 -384 381 -384T373 -385Q369 -386 364 -386Q362 -386 358 -391T351 -402T344 -413T340 -419Q310 -462 272 -490T179 -519H153Q150 -518 144 -515T131 -509T116
-502T106 -497Q103 -494 97 -489T86 -479T77 -469T73 -462Q65 -432 65 -405Q65 -378 73 -351Q73 -350 77 -346T86 -337T97 -327T106 -318Q112 -314 122 -307T143 -294T162 -282T174 -275Q177 -273 190 -271T218 -267T247 -264T264 -263Q265 -261 274 -257T284 -253Q286
-252 294 -249T311 -242T329 -234T340 -228Q341 -228 345 -220T352 -208Q369 -166 386 -126T418 -42Q428 -10 434 21T450 81Q466 124 481 164T497 249Z" />
<glyph unicode="&#xa4;" glyph-name="currency" horiz-adv-x="1037" d="M115 339Q115 349 128 370T158 413T194 453T222 477V490Q222 491 224 500T227 514Q224 529 217 545T203 580T190 618T184 661V727Q190 732 198 750T213 789T226 829T231 856Q231 866 221
879T197 906T170 931T151 951Q148 952 141 960T125 979T109 999T99 1012Q106 1044 131 1058T182 1073Q192 1073 199 1069T212 1059T225 1049T243 1043Q248 1030 256 1015T275 987T301 964T333 955H345Q364 963 386 973T431 993T478 1008T525 1014H539Q549 1014
551 1012Q555 1006 575 997T621 980T671 966T705 960Q718 960 729 966T749 980T765 997T781 1012L852 1076H881Q883 1076 888 1072T898 1061T909 1047T916 1036Q916 1035 916 1023T917 1007L916 977Q913 971 907 967T892 958T875 951T862 943Q858 940 849 929T829
905T811 879T802 862V860Q802 844 811 827T832 790T852 752T862 711L852 619Q850 619 847 611T841 591T835 569T831 555Q822 549 818 545T812 540Q805 534 805 522Q805 514 806 503T810 483T816 468T822 462L852 450Q870 438 887 410T917 355Q922 350 923 347T924
341Q924 332 918 322T903 303T884 288T864 282Q859 284 852 286T838 292T827 297T822 299L725 391Q721 393 715 395T703 398H701Q680 395 661 386T621 368T579 351T530 344Q526 344 523 345T514 355H502Q459 355 425 363T364 384Q354 388 350 391T344 398T339 403T329
405Q319 405 303 386T266 344T218 301T163 282Q143 286 129 302T115 339ZM393 509L416 484Q434 479 450 475Q464 471 478 468T501 462H521Q587 462 632 487T710 573Q712 576 717 584T730 601T743 620T753 635L744 678L753 714V727Q745 748 735 763T715 792T693
818T672 849Q670 851 669 853T665 856Q649 859 636 864T611 876T584 891T551 908Q540 906 518 902T471 893T424 884T393 877Q378 864 366 845T334 817L286 711V625Q291 622 302 607T323 573T342 539T350 517L393 509Z" />
<glyph unicode="&#xa5;" glyph-name="yen" horiz-adv-x="1493" d="M446 125Q446 138 454 151T477 164H549Q551 172 556 175T568 178Q579 178 585 178T594 180T599 181T606 182Q621 182 631 194T647 222T655 254T658 280L660 324Q660 338 659 353T653 380T639 399T613
407Q574 409 553 410T520 413T504 416T497 417Q475 417 468 414T461 407Q439 404 419 403T378 401Q335 401 293 407Q282 407 280 421T278 446Q278 453 279 465T285 488T297 508T316 517Q343 517 358 517T380 516T391 515T397 514H418Q425 514 435 515T458 517Q471
517 477 512L536 524L582 510Q592 510 604 511T627 517T644 530T651 552Q651 563 649 586T641 634T624 676T593 694Q588 694 577 686T563 678Q559 678 543 680T520 683Q518 683 515 687T511 694H430Q430 683 414 683L340 694L293 683Q289 688 281 700T273 727Q273
737 278 748T290 771T306 793T323 813Q327 815 330 815T337 815Q351 815 359 811T382 806H394Q405 806 411 808T425 818H534Q542 818 542 827Q542 829 537 837T523 857T504 881T485 905T470 926T461 939Q447 971 433 1004T395 1064L369 1093L352 1123Q344 1136
329 1156T295 1197T259 1235T228 1259Q207 1271 181 1272T131 1278T91 1296T75 1344Q75 1357 85 1366T110 1382T140 1390T167 1393Q177 1393 184 1390T196 1384T206 1376T221 1370Q222 1370 231 1372T243 1377L293 1370L338 1393L454 1382L529 1393Q543 1393 560
1390T593 1378T618 1356T629 1323V1311Q618 1305 605 1297T578 1282T548 1271T520 1266V1263Q520 1225 536 1193T574 1131T618 1070T651 1005L672 990Q680 985 681 980T686 953Q689 947 694 937T704 916T715 896T722 882Q726 874 733 861T747 836T763 815T778 806Q783
806 795 818Q822 846 838 868T866 911T892 956T928 1012Q942 1034 965 1061T1011 1117T1050 1177T1067 1240Q1067 1248 1060 1254T1042 1266T1021 1274T1004 1277L973 1285Q963 1298 957 1305T948 1316T945 1321T944 1323Q944 1332 949 1341T963 1358T980 1374T997
1386Q1011 1386 1018 1385T1032 1382Q1036 1382 1041 1385T1051 1393Q1065 1394 1076 1395T1098 1396Q1111 1396 1124 1395T1151 1393Q1161 1385 1165 1384T1181 1382Q1183 1382 1192 1387T1205 1393Q1207 1393 1215 1392T1232 1388T1250 1384T1262 1382Q1266 1382
1273 1385T1283 1393Q1317 1393 1350 1386T1399 1377Q1412 1370 1423 1352T1435 1318Q1435 1308 1421 1299T1388 1282T1352 1271T1328 1266L1286 1277L1234 1240Q1204 1216 1184 1195T1147 1152T1115 1107T1079 1054Q1059 1026 1034 999T985 943T938 886T902 825Q908
820 921 817T950 811T984 808T1018 806H1055Q1069 806 1082 812T1112 818Q1155 818 1176 795T1198 730Q1198 714 1197 708T1189 699Q1162 694 1147 689T1110 683Q1078 683 1048 691T985 699Q963 699 943 691T902 683L856 694Q854 690 851 683T843 667T837 652T833
642L837 531Q844 531 848 534T856 542T862 550T871 554Q878 554 889 551T913 542T936 532T956 524Q970 527 982 527T1006 528L1056 526Q1076 526 1094 526T1131 524Q1137 524 1148 519T1170 508T1189 495T1198 488V429Q1198 426 1190 422T1172 415T1154 410T1144
407H1077L959 417Q951 417 945 415T932 409T914 404T890 401Q888 401 878 404T863 407Q858 407 850 405T840 401L833 325Q833 297 836 279T846 246T866 219T899 190L999 176Q1009 174 1021 171T1043 161T1060 145T1067 123Q1067 107 1059 94T1037 81Q1017 70 998
68T961 66Q914 66 863 81Q840 70 812 68T755 66H710L601 73Q588 73 579 70T562 63T546 56T527 52Q512 52 498 57T472 72T453 95T446 125Z" />
<glyph unicode="&#xa6;" glyph-name="brokenbar" horiz-adv-x="558" d="M178 -130Q178 -110 170 -89T161 -54Q161 -31 169 -10T178 35Q178 45 176 53T171 69Q161 89 161 112Q161 150 171 188T182 268V285Q200 308 220 321T266 334Q291 334 313 326T353 301T379
264T389 216Q389 205 386 192T382 164Q382 153 382 141T386 118Q389 89 389 62V29Q389 16 388 6T382 -12Q377 -30 376 -49T375 -85Q375 -103 376 -119T382 -156Q391 -171 392 -179T394 -204Q394 -218 392 -237T382 -273T362 -302T330 -315Q300 -315 269 -308T213
-286T172 -246T156 -185V-182Q156 -181 159 -175T165 -163T172 -151T175 -144L178 -130ZM178 981Q178 1001 170 1022T161 1062Q161 1085 169 1105T178 1149Q178 1158 176 1165T171 1183Q166 1192 164 1203T161 1225Q161 1264 171 1300T182 1379V1401Q200 1422 220
1433T266 1445Q291 1445 313 1437T353 1415T379 1379T389 1332L382 1278Q382 1265 382 1254T386 1227Q389 1203 389 1173V1140Q389 1131 388 1119T382 1099Q377 1080 376 1062T375 1029Q375 1011 376 993T382 957Q391 943 392 933T394 910Q394 896 392 877T382
839T362 809T330 796Q300 796 269 803T213 825T172 866T156 929Q156 932 159 938T165 951T172 963T175 971L178 981Z" />
<glyph unicode="&#xa7;" glyph-name="section" horiz-adv-x="742" d="M62 -202Q62 -174 76 -157T112 -131T160 -118T209 -114Q225 -114 240 -117T270 -124T300 -131T333 -135H352Q354 -132 358 -124T367 -106T376 -89T382 -76V-35V-17Q382 1 380 24T371 59Q369
62 361 70T342 87T324 105T314 116Q311 119 306 127T294 144T282 161T276 173Q275 174 274 178T271 188T268 197T266 202Q263 204 256 207T247 213Q230 224 220 237T202 265T190 296T177 329Q176 332 171 342T159 366T147 390T141 405Q137 410 133 421T129 434Q129
438 130 458T131 497Q131 517 129 521Q129 523 127 530T121 545T114 560T110 569V574V578Q111 581 112 588T115 603T118 617T119 626Q132 674 139 719T160 810Q160 812 162 817T168 829T174 841T177 848Q205 916 234 983T303 1105T402 1193T548 1227Q572 1227 596
1221T639 1202T669 1168T681 1119Q681 1033 593 1033Q586 1034 581 1036Q576 1038 572 1039T565 1043Q561 1044 547 1049T517 1060T486 1073T468 1081H463Q459 1081 442 1072T406 1052T370 1030T352 1014Q350 1010 347 1000T344 984Q341 984 341 981T340 976Q340
940 357 909T398 848T449 793T497 742Q584 637 593 502V467V375Q593 375 594 370T598 358T601 345T603 337V324Q603 303 595 282T584 240Q583 239 582 231T579 213T576 195T574 183Q566 154 554 120T525 59Q511 34 506 7T487 -48Q461 -92 435 -121T371 -183Q350
-202 329 -224T283 -264T232 -295T172 -308Q128 -308 102 -280T62 -211V-202ZM209 626Q210 624 212 618T218 603T223 588T228 578Q228 575 227 558T226 524Q226 516 226 510T228 502Q228 500 233 495T244 483T257 472T266 464Q285 440 299 412T329 356T362 304T408
261Q410 261 411 260T414 259Q439 259 453 271T475 301T485 340T487 382Q487 407 480 428T461 468T439 508T420 550Q418 552 415 560T409 579T404 597T401 607Q399 609 395 614T385 626T376 638T371 645Q370 648 366 656T357 675T348 693T344 704Q342 705 337 711T326
725T313 741T302 754Q297 762 296 763T283 765Q275 765 268 759T254 745T242 728T235 713Q233 708 229 697T221 671T213 645T209 626Z" />
</font>
</defs>
</svg>
